Jinta.ru

Полезный софт трекер





Начать новую тему Ответить на тему  [ 1 сообщение ] 
Автор Сообщение
СообщениеДобавлено: 31 окт 2018, 16:45 
Не в сети
Администратор
Аватара пользователя
Раздал: 655.97 ГБ
Скачал: 143.61 ГБ
Ратио: 1011.218


Зарегистрирован: 07 окт 2016, 01:02
Сообщения: 4137
Откуда: http://uztor.ru
Титаны / Titans



#777
Год выпуска: 2018
Производство: США
Продолжительность: ~ 00:50:00 серия
Премьера (мир): 7 октября 2018
Перевод: Профессиональный (многоголосый закадровый) | Baibako
Субтитры: английские (SDH)
Жанр: фантастика, фэнтези, боевик, приключения

Режиссёр: Брэд Андерсон, Грант Харви, Джон Фоусет

В ролях:
Брентон Туэйтс, Тиган Крофт, Анна Диоп, Линдси Горт, Минка Келли, Райан Поттер, Алан Ричсон, Каррен Уолтерс, Шеймус Девер, Бруно Бичир

Описание:
В надежде остановить своего отца — древнего демона Тригона — обладательница невероятных способностей девушка Рэйвен обращается за помощью к Робину. Бывший напарник Бэтмена теперь сам вершит правосудие на улицах Готэма, но, чтобы остановить зло, Рэйвен и Робину понадобится подмога.



Качество: WEBRip 720p
Формат: MKV

Видео: AVC, 1280 x 720 (1.778), 23.976 fps, ~2988 kbps
Аудио Rus: AC-3, 48 kHz, 2 ch, 384 kbps |Baibako|

Аудио Eng: AC-3, 48 kHz, 2 ch, 384 kbps |Original|
Общее
Уникальный идентификатор : 111364116953800823233212484375513977267 (0x53C7F2E1BFBFFAB6C2F7D7ABC138D1B3)
Полное имя : E:\_Сериалы\_Сериалы\Титаны\Titans.s01.720p.WEBRip.BaibaKo\Titans.s01e01.720p.WEBRip.BaibaKo.mkv
Формат : Matroska
Версия формата : Version 4 / Version 2
Размер файла : 1,33 Гбайт
Продолжительность : 50 м. 42 с.
Общий поток : 3758 Кбит/сек
Дата кодирования : UTC 2018-10-12 17:19:47
Программа кодирования : mkvmerge v27.0.0 ('Metropolis') 64-bit
Библиотека кодирования : libebml v1.3.6 + libmatroska v1.4.9

Видео
Идентификатор : 1
Формат : AVC
Формат/Информация : Advanced Video Codec
Профиль формата : Baseline@L3.1
Настройки формата : 4 Ref Frames
Параметр CABAC формата : Нет
Параметр RefFrames формата : 4 кадра
Параметр GOP формата : M=1, N=48
Идентификатор кодека : V_MPEG4/ISO/AVC
Продолжительность : 50 м. 42 с.
Битрейт : 2988 Кбит/сек
Ширина : 1280 пикселей
Высота : 720 пикселей
Соотношение сторон : 16:9
Режим частоты кадров : Постоянный
Частота кадров : 23,976 (24000/1001) кадра/сек
Цветовое пространство : YUV
Субдискретизация насыщенности : 4:2:0
Битовая глубина : 8 бит
Тип развёртки : Прогрессивная
Бит/(Пиксели*Кадры) : 0.135
Размер потока : 1,06 Гбайт (80%)
Библиотека кодирования : Zencoder Video Encoding System
Default : Да
Forced : Нет
Цветовой диапазон : Limited
Основные цвета : BT.709
Характеристики трансфера : BT.709
Коэффициенты матрицы : BT.709

Аудио #1
Идентификатор : 2
Формат : AC-3
Формат/Информация : Audio Coding 3
Идентификатор кодека : A_AC3
Продолжительность : 50 м. 42 с.
Вид битрейта : Постоянный
Битрейт : 384 Кбит/сек
Каналы : 2 канала
Расположение каналов : Front: L R
Частота : 48,0 КГц
Частота кадров : 31,250 кадров/сек (1536 SPF)
Битовая глубина : 16 бит
Метод сжатия : С потерями
Размер потока : 139 Мбайт (10%)
Язык : Russian
ServiceKind/String : Complete Main
Default : Да
Forced : Нет

Аудио #2
Идентификатор : 3
Формат : AC-3
Формат/Информация : Audio Coding 3
Идентификатор кодека : A_AC3
Продолжительность : 50 м. 42 с.
Вид битрейта : Постоянный
Битрейт : 384 Кбит/сек
Каналы : 2 канала
Расположение каналов : Front: L R
Частота : 48,0 КГц
Частота кадров : 31,250 кадров/сек (1536 SPF)
Битовая глубина : 16 бит
Метод сжатия : С потерями
Размер потока : 139 Мбайт (10%)
Язык : English
ServiceKind/String : Complete Main
Default : Нет
Forced : Нет

Текст
Идентификатор : 4
Формат : UTF-8
Идентификатор кодека : S_TEXT/UTF8
Идентификатор кодека/Информация : UTF-8 Plain Text
Продолжительность : 48 м. 25 с.
Битрейт : 36 бит/сек
ElementCount : 515
Размер потока : 13,0 Кбайт (0%)
Заголовок : SDH
Язык : English
Default : Да
Forced : Нет
      
  
Раздача ведётся путём добавления новых серий; при каждом добавлении создаётся новый торрент.
Чтобы начать докачку новой серии, пользователям необходимо сделать следующее:
1. остановить скачивание,
2. удалить старый торрент у себя из клиента (старые серии удалять не надо),
3. скачать новый торрент и запустить его у себя в клиенте вместо старого, при этом указать клиенту путь в старую папку, куда и должно происходить скачивание новых серий.

Ваш клиент при этом должен произвести хеширование (проверку) старой папки (если не производит сам - помогите ему сделать это), и будет докачивать только те серии которых у вас ещё нет. Старые серии при этом не удаляются, а продолжают раздаваться!

Eсли вы уже удалили старые серии, то предотвратить повторную закачку старых серий можно, отжав галочку в соответствующих местах при запуске нового торрента. По возможности, желательно не удалять старые серии как можно дольше, чтобы релизёр не столько продолжал раздавать старые серии, а смог сконцентрироваться на новых.

Совет для тех, кто не хочет ждать перехеширования:
Создайте ещё одну папку рядом с папкой сериала (рядом, а не в ней!!!). Каждую новую серию после удачной загрузки копируйте в новую папку так чтобы ваша основная папка всегда была пуста. Когда ваш новый торрент предложит вам закачать все файлы, выберете только последнюю. Для сидирования же укажите адрес новой папки.

Как закачать отдельный файл из торрента или докачать ранее пропущенные файлы торрента!
1. Открыть торрент
2. Снять галки с тех файлов торрента, которые мы не хотим закачивать. Оставляем только на нужных нам файлах (файле).
3. Нажать О.К.

В клиенте utorrent

Инструкция

1) Открыть торрент


2) Снять галки с тех файлов торрента, которые мы не хотим закачивать:

* либо вручную, снимая с каждого файла галку( скрин №1)
* либо, нажав кнопку "Снять метки (Select None)", сняв сразу со всех файлов(скрин №2)
№1

№2

Оставляем только на нужных нам файлах (файле).

3)Нажать О.К
Приятного просмотра!!!


Вернуться к началу
 Профиль Отправить личное сообщение  
Ответить с цитатой  
  • Торрент
Автор: Titan Хэш: ---
Добавлен: 31 окт 2018, 16:45 Приватный: Нет (DHT включён)
Статус: Проверен
Размер: 3.93 ГБ (4 218 480 399 байт)
Изменил:
---
Скачали: 0 (Раздающих: 100%)
Причина:
---
Здоровье: 100%
Сидеров: 1 Личеров: 0
Скорость раздачи: 0 байт/сек Скорость скачивания: 0 байт/сек
Последний сидер: 17 дней 18 часов 54 минуты 23 секунды назад Последний личер: Нет
Для скачивания торрента необходимо зарегистрироваться или войти на трекер.
Показать сообщения за:  Поле сортировки  
Начать новую тему Ответить на тему  [ 1 сообщение ] 


Кто сейчас на конференции

Сейчас этот форум просматривают: нет зарегистрированных пользователей и гости: 1


Вы не можете начинать темы
Вы не можете отвечать на сообщения
Вы не можете редактировать свои сообщения
Вы не можете удалять свои сообщения
Вы не можете добавлять вложения

Найти:
Перейти:  
cron
Создано на основе phpBB® Forum Software © phpBB Group
ppkBB3cker v.2.5 © 2008-2018 @ PPK | Icon Theme by Everaldo.com Design Studio
Русская поддержка phpBB
Ресурс не предоставляет электронные версии произведений, а занимается лишь коллекционированием и каталогизацией ссылок, присылаемых и публикуемых на форуме нашими читателями. Если вы являетесь правообладателем какого-либо представленного материала и не желаете чтобы ссылка на него находилась в нашем каталоге, свяжитесь с нами и мы незамедлительно удалим её. Файлы для обмена на трекере предоставлены пользователями сайта, и администрация не несёт ответственности за их содержание. Просьба не заливать файлы, защищенные авторскими правами, а также файлы нелегального содержания!