Jinta.ru

Полезный софт трекер





Начать новую тему Ответить на тему  [ 1 сообщение ] 
Автор Сообщение
СообщениеДобавлено: 27 ноя 2017, 11:28 
В сети
Администратор
Аватара пользователя
Раздал: 431.89 ГБ
Скачал: 246.54 ГБ
Ратио: 1013.542


Зарегистрирован: 30 июл 2016, 22:43
Сообщения: 1714
Валериан и город тысячи планет / Valerian and the City of a Thousand Planets

#777

Год выпуска: 2017
Страна: Франция, Китай, Бельгия, Германия, ОАЭ, США, Великобритания, Канада
Производство: EuropaCorp, Fundamental Films, Grive Productions, Gulf Film, Novo Pictures, Orange Studio, River Road Entertainment, TF1 Films Production, Universum Film (UFA)
Перевод: Профессиональный (полное дублирование) [IPTV] + Украинский + Оригинал (английский)
Субтитры вшитые (softsub):
#1 - Русские Форсированные [компиляция Ash61 (v.2)] (включены по умолчанию)
#2 - Русские Полные (по оф. дубляжу)
#3 - Украинские Форсированные (на речь компьютера Алекс)
#4 - English Forced (BD 2D)
#5 - English Full
#6 - English Full (+songs)
#7 - English SDH
Субтитры внешние (UTF-8):
#1 - Русские Форсированные [компиляция Ash61 (v.2)] (включены по умолчанию)
#2 - Русские Полные (по оф. дубляжу)
#3 - Украинские Форсированные (на речь компьютера Алекс)
Жанр: Фантастика, фэнтези, боевик, приключения

Режиссёр: Люк Бессон

В ролях: Дэйн ДеХаан, Кара Делевинь, Элизабет Дебики, Итан Хоук, Джон Гудман, Клайв Оуэн, Рутгер Хауэр, Рианна, Крис У, Матьё Кассовиц



Описание:
2700 год. Валериан и Лорелин — космические спецагенты, которые по долгу службы впутались в подозрительное дело и стали невольными участниками то ли межгалактического заговора, то ли аферы причудливых поселенцев планеты Альфа, прибывших туда из различных миров со всех уголков галактик.





Формат 3D: Half OverUnder / Вертикальная анаморфная стереопара
Порядок ракурсов: левый ракурс первый

Формат: MKV
Качество: BDRip 1080p
Продолжительность: 02:16:40

Видео кодек: AVC
Аудио кодек: AC3
Видео: 1920х1080 (16:9), 23.976 fps, AVC ~ 10 000 kbps avg, 0.201 bit/pixel
Аудио#1: AC3, 48 kHz, 6 ch, ~ 448.0 kbps avg | Профессиональный (полное дублирование) [IPTV]
Аудио#2: AC3, 48 kHz, 2 ch, ~ 192.0 kbps avg | Украинский (дублированный)
Аудио#3: AC3, 48 kHz, 6 ch, ~ 640.0 kbps avg | Оригинал (английский)

Дата премьеры (мир): 17 июля 2017
Дата премьеры (РФ): 10 августа 2017
General
Unique ID : 188214974563918097457506118062709327397 (0x8D98E2B35ECA4B738BC013CE8856C625)
Complete name : F:12ValerianAndTheCityOfAThousandPlanets(2017)3D-halfOU(Ash61)Dub-IPTVValerianAndTheCityOfAThousandPlanets(2017)3D-halfOU(Ash61)Dub-IPTV.mkv
Format : Matroska
Format version : Version 2
File size : 10.8 GiB
Duration : 2 h 16 min
Overall bit rate : 11.3 Mb/s
Movie name : Валериан и город тысячи планет / Valerian and the City of a Thousand Planets (2017) in 3D
Encoded date : UTC 2017-11-26 16:55:43
Writing application : mkvmerge v5.8.0 ('No Sleep / Pillow') built on Sep 2 2012 15:37:04
Writing library : libebml v1.2.3 + libmatroska v1.3.0

Video
ID : 1
Format : AVC
Format/Info : Advanced Video Codec
Format profile : High@L4.1
Format settings, CABAC : Yes
Format settings, RefFrames : 4 frames
Codec ID : V_MPEG4/ISO/AVC
Duration : 2 h 16 min
Bit rate : 10 000 kb/s
Width : 1 920 pixels
Height : 1 080 pixels
Display aspect ratio : 16:9
Frame rate mode : Constant
Frame rate : 23.976 (24000/1001) FPS
Color space : YUV
Chroma subsampling : 4:2:0
Bit depth : 8 bits
Scan type : Progressive
Bits/(Pixel*Frame) : 0.201
Stream size : 9.33 GiB (87%)
Title : BDRip by Ash61 (from BD 3D Nor)
Writing library : x264 core 146 r2538 121396c
Encoding settings : cabac=1 / ref=4 / deblock=1:-3:-3 / analyse=0x3:0x113 / me=umh / subme=10 / psy=1 / psy_rd=1.00:0.00 / mixed_ref=1 / me_range=32 / chroma_me=1 / trellis=2 / 8x8dct=1 / cqm=0 / deadzone=21,11 / fast_pskip=0 / chroma_qp_offset=-2 / threads=12 / lookahead_threads=2 / sliced_threads=0 / nr=0 / decimate=0 / interlaced=0 / bluray_compat=0 / constrained_intra=0 / bframes=8 / b_pyramid=2 / b_adapt=2 / b_bias=0 / direct=3 / weightb=1 / open_gop=0 / weightp=2 / keyint=250 / keyint_min=23 / scenecut=40 / intra_refresh=0 / rc_lookahead=60 / rc=2pass / mbtree=0 / bitrate=10000 / ratetol=1.0 / qcomp=0.70 / qpmin=0 / qpmax=69 / qpstep=4 / cplxblur=20.0 / qblur=0.5 / vbv_maxrate=40000 / vbv_bufsize=30000 / nal_hrd=none / filler=0 / frame-packing=4 / ip_ratio=1.40 / pb_ratio=1.30 / aq=1:0.70
Language : English
Default : Yes
Forced : No

Audio #1
ID : 2
Format : AC-3
Format/Info : Audio Coding 3
Format settings, Endianness : Big
Codec ID : A_AC3
Duration : 2 h 16 min
Bit rate mode : Constant
Bit rate : 448 kb/s
Channel(s) : 6 channels
Channel positions : Front: L C R, Side: L R, LFE
Sampling rate : 48.0 kHz
Frame rate : 31.250 FPS (1536 SPF)
Bit depth : 16 bits
Compression mode : Lossy
Stream size : 438 MiB (4%)
Title : Дубляж - IPTV
Language : Russian
Service kind : Complete Main
Default : Yes
Forced : No

Audio #2
ID : 3
Format : AC-3
Format/Info : Audio Coding 3
Format settings, Endianness : Big
Codec ID : A_AC3
Duration : 2 h 16 min
Bit rate mode : Constant
Bit rate : 192 kb/s
Channel(s) : 2 channels
Channel positions : Front: L R
Sampling rate : 48.0 kHz
Frame rate : 31.250 FPS (1536 SPF)
Bit depth : 16 bits
Compression mode : Lossy
Stream size : 188 MiB (2%)
Title : Дубляж - Line (моно) (от Hurtom)
Language : Ukrainian
Service kind : Complete Main
Default : No
Forced : No

Audio #3
ID : 4
Format : AC-3
Format/Info : Audio Coding 3
Format settings, Endianness : Big
Codec ID : A_AC3
Duration : 2 h 16 min
Bit rate mode : Constant
Bit rate : 640 kb/s
Channel(s) : 6 channels
Channel positions : Front: L C R, Side: L R, LFE
Sampling rate : 48.0 kHz
Frame rate : 31.250 FPS (1536 SPF)
Bit depth : 16 bits
Compression mode : Lossy
Stream size : 626 MiB (6%)
Title : Original - BD 3D Nor
Language : English
Service kind : Complete Main
Default : No
Forced : No

Text #1
ID : 5
Format : UTF-8
Codec ID : S_TEXT/UTF8
Codec ID/Info : UTF-8 Plain Text
Title : Форсированные (компиляция Ash61 [v.2])
Language : Russian
Default : Yes
Forced : No

Text #2
ID : 6
Format : UTF-8
Codec ID : S_TEXT/UTF8
Codec ID/Info : UTF-8 Plain Text
Title : Полные (по дубляжу набил Ash61)
Language : Russian
Default : No
Forced : No

Text #3
ID : 7
Format : UTF-8
Codec ID : S_TEXT/UTF8
Codec ID/Info : UTF-8 Plain Text
Title : Форсированные (на речь компьютера Алекс) (от Hurtom)
Language : Ukrainian
Default : No
Forced : No

Text #4
ID : 8
Format : UTF-8
Codec ID : S_TEXT/UTF8
Codec ID/Info : UTF-8 Plain Text
Title : Forced (BD 3D Nor)
Language : English
Default : No
Forced : No

Text #5
ID : 9
Format : UTF-8
Codec ID : S_TEXT/UTF8
Codec ID/Info : UTF-8 Plain Text
Title : Full
Language : English
Default : No
Forced : No

Text #6
ID : 10
Format : UTF-8
Codec ID : S_TEXT/UTF8
Codec ID/Info : UTF-8 Plain Text
Title : Full (with songs)
Language : English
Default : No
Forced : No

Text #7
ID : 11
Format : UTF-8
Codec ID : S_TEXT/UTF8
Codec ID/Info : UTF-8 Plain Text
Title : SDH
Language : English
Default : No
Forced : No

Menu
00:00:00.000 : : 1
00:17:30.925 : : 2
00:34:12.342 : : 3
00:51:16.699 : : 4
01:07:59.742 : : 5
01:26:10.332 : : 6
01:40:22.725 : : 7
01:58:47.871 : : 8



















      
     
 


Вернуться к началу
 Профиль Отправить личное сообщение  
Ответить с цитатой  
  • Торрент
Автор: Jinta Хэш: ---
Добавлен: 27 ноя 2017, 11:28 Приватный: Нет (DHT включён)
Статус: Проверен
Размер: 10.77 ГБ (11 562 636 529 байт)
Изменил:
---
Скачали: 0 (Раздающих: 0%)
Причина:
---
Здоровье: 0%
Сидеров: 0 Личеров: 0
Скорость раздачи: 0 байт/сек Скорость скачивания: 0 байт/сек
Последний сидер: Нет Последний личер: Нет
Для скачивания торрента необходимо зарегистрироваться или войти на трекер.
Показать сообщения за:  Поле сортировки  
Начать новую тему Ответить на тему  [ 1 сообщение ] 


Кто сейчас на конференции

Сейчас этот форум просматривают: нет зарегистрированных пользователей и гости: 1


Вы не можете начинать темы
Вы не можете отвечать на сообщения
Вы не можете редактировать свои сообщения
Вы не можете удалять свои сообщения
Вы не можете добавлять вложения

Найти:
Перейти:  
Создано на основе phpBB® Forum Software © phpBB Group
ppkBB3cker v.2.5 © 2008-2018 @ PPK | Icon Theme by Everaldo.com Design Studio
Русская поддержка phpBB
Ресурс не предоставляет электронные версии произведений, а занимается лишь коллекционированием и каталогизацией ссылок, присылаемых и публикуемых на форуме нашими читателями. Если вы являетесь правообладателем какого-либо представленного материала и не желаете чтобы ссылка на него находилась в нашем каталоге, свяжитесь с нами и мы незамедлительно удалим её. Файлы для обмена на трекере предоставлены пользователями сайта, и администрация не несёт ответственности за их содержание. Просьба не заливать файлы, защищенные авторскими правами, а также файлы нелегального содержания!