Jinta.ru

Лучший софт трекер





Начать новую тему Ответить на тему  [ 1 сообщение ] 
Автор Сообщение
СообщениеДобавлено: 17 май 2018, 16:36 
Не в сети
Администратор
Аватара пользователя
Раздал: 331.37 ГБ
Скачал: 47.49 ГБ
Ратио: 921.928


Зарегистрирован: 30 июл 2016, 22:43
Сообщения: 1146
Будка поцелуев / The Kissing Booth


#777

Год выпуска: 2018
Страна: Великобритания
Продолжительность: 01:45:03
Перевод: Профессиональный (многоголосый) | HDRezka studio[/b]

Субтитры: английские
Жанр: мелодрама, комедия

Режиссер: Винс Марселло

В ролях:
Джои Кинг, Джейкоб Элорди, Молли Рингуолд, Джоэл Кортни, Фрэнсис Шолто-Дуглас, Меган Янг, Нэйтан Линн, Робби Такер, Джессика Саттон, Морн Виссер

Описание:
Старшеклассница Эль — общительная, милая, но еще не испытавшая прелести поцелуев девушка. Ной — старший брат ее лучшего друга — дерзкий и ветреный, разбивший не одно девичье сердце. Решив однажды поучаствовать в «Будке поцелуев» на осеннем карнавале, Эль даже представить не могла, что подарит свой первый поцелуй Ною, и её жизнь изменится до неузнаваемости.




Качество: WEB-DL 1080p
Формат: MKV

Видео: AVC , 1920x870, 4250kb/s, 23.976fps
Аудио#1: AC3, 48 KHz, 2 ch ~ 384 Kb/s (русский)
Аудио#2: AC3, 48 KHz, 6 ch ~ 384 Kb/s (английский)
          

Формат : Matroska
Версия формата : Version 2
Размер файла : 3,76 Гбайт
Продолжительность : 1 ч. 45 м.
Общий поток : 5120 Кбит/сек
Дата кодирования : UTC 2018-05-17 04:22:02
Программа кодирования : mkvmerge v7.8.0 ('River Man') 32bit built on Apr 3 2015 12:11:22
Библиотека кодирования : libebml v1.3.1 + libmatroska v1.4.2

Видео
Идентификатор : 1
Формат : AVC
Формат/Информация : Advanced Video Codec
Профиль формата : Main@L4
Настройки формата : CABAC / 2 Ref Frames
Параметр CABAC формата : Да
Параметр RefFrames формата : 2 кадра
Идентификатор кодека : V_MPEG4/ISO/AVC
Продолжительность : 1 ч. 45 м.
Битрейт : 4250 Кбит/сек
Ширина : 1920 пикселей
Высота : 870 пикселей
Соотношение сторон : 2,2:1
Режим частоты кадров : Постоянный
Частота кадров : 23,976 (24000/1001) кадра/сек
Цветовое пространство : YUV
Субдискретизация насыщенности : 4:2:0
Битовая глубина : 8 бит
Тип развёртки : Прогрессивная
Бит/(Пиксели*Кадры) : 0.106
Размер потока : 3,12 Гбайт (83%)
Язык : English
Default : Да
Forced : Нет

Аудио #1
Идентификатор : 2
Формат : AC-3
Формат/Информация : Audio Coding 3
Идентификатор кодека : A_AC3
Продолжительность : 1 ч. 45 м.
Вид битрейта : Постоянный
Битрейт : 384 Кбит/сек
Каналы : 2 канала
Расположение каналов : Front: L R
Частота : 48,0 КГц
Частота кадров : 31,250 кадров/сек (1536 SPF)
Битовая глубина : 16 бит
Метод сжатия : С потерями
Размер потока : 289 Мбайт (7%)
Язык : Russian
Default : Да
Forced : Да

Аудио #2
Идентификатор : 3
Формат : AC-3
Формат/Информация : Audio Coding 3
Идентификатор кодека : A_AC3
Продолжительность : 1 ч. 45 м.
Вид битрейта : Постоянный
Битрейт : 384 Кбит/сек
Каналы : 6 каналов
Расположение каналов : Front: L C R, Side: L R, LFE
Частота : 48,0 КГц
Частота кадров : 31,250 кадров/сек (1536 SPF)
Битовая глубина : 16 бит
Метод сжатия : С потерями
Размер потока : 289 Мбайт (7%)
Язык : English
Default : Нет
Forced : Нет

Текст
Идентификатор : 4
Формат : UTF-8
Идентификатор кодека : S_TEXT/UTF8
Идентификатор кодека/Информация : UTF-8 Plain Text
Язык : English
Default : Нет
Forced : Нет



Вернуться к началу
 Профиль  
Ответить с цитатой  
  • Торрент
Автор: Jinta Хэш: ---
Добавлен: 17 май 2018, 16:36 Приватный: Нет (DHT включён)
Статус: Проверен
Размер: 3.76 ГБ (4 034 082 755 байт)
Изменил:
---
Скачали: 0 (Раздающих: 100%)
Причина:
---
Здоровье: 100%
Сидеров: 11 Личеров: 7
Скорость раздачи: 0 байт/сек Скорость скачивания: 0 байт/сек
Последний сидер: 5 дней 58 минут 35 секунд назад Последний личер: 5 дней 58 минут 35 секунд назад
Для скачивания торрента необходимо зарегистрироваться или войти на трекер.
Показать сообщения за:  Поле сортировки  
Начать новую тему Ответить на тему  [ 1 сообщение ] 


Кто сейчас на конференции

Сейчас этот форум просматривают: нет зарегистрированных пользователей и гости: 1


Вы не можете начинать темы
Вы не можете отвечать на сообщения
Вы не можете редактировать свои сообщения
Вы не можете удалять свои сообщения
Вы не можете добавлять вложения

Найти:
Перейти: