Jinta.ru

Полезный софт трекер





Начать новую тему Ответить на тему  [ 1 сообщение ] 
Автор Сообщение
СообщениеДобавлено: 23 сен 2018, 17:47 
Не в сети
Администратор
Аватара пользователя
Раздал: 581.07 ГБ
Скачал: 296.51 ГБ
Ратио: 1015.100


Зарегистрирован: 30 июл 2016, 22:43
Сообщения: 1826
Мрачные небеса / Dark Skies


#777

Информация о фильме
Название: Мрачные небеса
Оригинальное название: Dark Skies
Год выпуска: 2013
Страна: США
Студия: Alliance Films, Blumhouse Productions, Automatik Entertainment, Cinema Vehicle Services
Продолжительность: 01:37:09
Перевод: Дублированный
Жанр: Ужасы, фантастика, триллер

Режиссер: Скотт Чарльз Стюарт

В ролях:
Кери Расселл, Джош Хэмилтон, Дакота Гойо, Дж.К. Симмонс, Энни Турман, Майкл Патрик МакГилл, Тревор Ст. Джон, Аливия Элин Линд, Л. Бенет, Джейк Уошберн

О фильме:
Мрачные небеса не всегда несут ужасы в виде торнадо или затяжных ливней. Угроза с них может нагрянуть и с совершенно неожиданной стороны... Лейси и Дэниел - родители двух мальчиков, с которыми начали происходить необъяснимые аномалии. А с некоторых пор и с родителями тоже. Вот тогда супруги и решились на визит к мистеру Полларду. Мистер Поллард, бывший эксперт по похищению людей инопланетными существами, рассказал им, что инопланетян, похищающих людей, три вида, но чаще всего - это "серые". Далеко не сразу Дэниел поверил, что им угрожает опасность, таящаяся в космосе. А теперь, по словам мистера Полларда, оказалось, что "серые" позволили им обнаружить своё присутствие только потому, что у них всё готово для похищения одного из членов их семьи...



Семпл

Файл
Качество: BDRip 720p
Видео: MPEG-4 AVC, 4874 Кбит/с, 1280x534, 23.976 кадр/с
Звук:
Русский (AC3, 6 ch, 384 Кбит/с)
Английский (AC3, 6 ch, 384 Кбит/с)
Английский (AC3, 2 ch, 192 Кбит/с) комментарии режиссёра
Субтитры: Русские, английские

Видеоряд от DON (от 02.09.2014г.)
Русские субтитры набраны в соответствии с дубляжом

General
Format : Matroska
Format version : Version 2
File size : 4.04 GiB
Duration : 1h 37mn
Overall bit rate : 5 952 Kbps
Encoded date : UTC 2015-03-17 15:46:06
Writing application : mkvmerge v5.5.0 ('Healer') built on Apr 6 2012 21:43:24
Writing library : libebml v1.2.3 + libmatroska v1.3.0

Video
ID : 1
Format : AVC
Format/Info : Advanced Video Codec
Format profile : High@L4.1
Format settings, CABAC : Yes
Format settings, ReFrames : 12 frames
Codec ID : V_MPEG4/ISO/AVC
Duration : 1h 37mn
Bit rate : 4 874 Kbps
Width : 1 280 pixels
Height : 534 pixels
Display aspect ratio : 2.40:1
Frame rate mode : Constant
Frame rate : 23.976 fps
Color space : YUV
Chroma subsampling : 4:2:0
Bit depth : 8 bits
Scan type : Progressive
Bits/(Pixel*Frame) : 0.297
Stream size : 3.31 GiB (82%)
Title : Dark Skies (2013)
Writing library : x264 core 140 r2377 1ca7bb9
Encoding settings : cabac=1 / ref=12 / deblock=1:-3:-3 / analyse=0x3:0x133 / me=tesa / subme=10 / psy=1 / psy_rd=0.95:0.00 / mixed_ref=1 / me_range=24 / chroma_me=1 / trellis=2 / 8x8dct=1 / cqm=0 / deadzone=21,11 / fast_pskip=0 / chroma_qp_offset=-2 / threads=12 / lookahead_threads=2 / sliced_threads=0 / nr=0 / decimate=0 / interlaced=0 / bluray_compat=0 / constrained_intra=0 / bframes=8 / b_pyramid=2 / b_adapt=2 / b_bias=0 / direct=3 / weightb=1 / open_gop=0 / weightp=2 / keyint=240 / keyint_min=23 / scenecut=40 / intra_refresh=0 / rc_lookahead=60 / rc=crf / mbtree=0 / crf=14.8 / qcomp=0.60 / qpmin=0 / qpmax=69 / qpstep=4 / vbv_maxrate=62500 / vbv_bufsize=78125 / crf_max=0.0 / nal_hrd=none / filler=0 / ip_ratio=1.20 / pb_ratio=1.10 / aq=1:0.80
Language : English
Default : Yes
Forced : No

Audio #1
ID : 2
Format : AC-3
Format/Info : Audio Coding 3
Mode extension : CM (complete main)
Format settings, Endianness : Big
Codec ID : A_AC3
Duration : 1h 37mn
Bit rate mode : Constant
Bit rate : 384 Kbps
Channel count : 6 channels
Channel positions : Front: L C R, Side: L R, LFE
Sampling rate : 48.0 KHz
Bit depth : 16 bits
Compression mode : Lossy
Stream size : 267 MiB (6%)
Title : Russian
Language : Russian
Default : Yes
Forced : No

Audio #2
ID : 3
Format : AC-3
Format/Info : Audio Coding 3
Mode extension : CM (complete main)
Format settings, Endianness : Big
Codec ID : A_AC3
Duration : 1h 37mn
Bit rate mode : Constant
Bit rate : 384 Kbps
Channel count : 6 channels
Channel positions : Front: L C R, Side: L R, LFE
Sampling rate : 48.0 KHz
Bit depth : 16 bits
Compression mode : Lossy
Stream size : 267 MiB (6%)
Title : English
Language : English
Default : No
Forced : No

Audio #3
ID : 4
Format : AC-3
Format/Info : Audio Coding 3
Mode extension : CM (complete main)
Format settings, Endianness : Big
Codec ID : A_AC3
Duration : 1h 37mn
Bit rate mode : Constant
Bit rate : 192 Kbps
Channel count : 2 channels
Channel positions : Front: L R
Sampling rate : 48.0 KHz
Bit depth : 16 bits
Compression mode : Lossy
Stream size : 133 MiB (3%)
Title : commentary
Language : English
Default : No
Forced : No

Text #1
ID : 5
Format : UTF-8
Codec ID : S_TEXT/UTF8
Codec ID/Info : UTF-8 Plain Text
Title : Russian
Language : Russian
Default : No
Forced : No

Text #2
ID : 6
Format : UTF-8
Codec ID : S_TEXT/UTF8
Codec ID/Info : UTF-8 Plain Text
Title : English
Language : English
Default : No
Forced : No

Text #3
ID : 7
Format : UTF-8
Codec ID : S_TEXT/UTF8
Codec ID/Info : UTF-8 Plain Text
Title : English SDH
Language : English
Default : No
Forced : No

Menu
00:00:00.000 : en:00:00:00.000
00:04:21.470 : en:00:04:21.470
00:08:22.210 : en:00:08:22.210
00:14:43.716 : en:00:14:43.716
00:18:52.131 : en:00:18:52.131
00:24:34.014 : en:00:24:34.014
00:29:52.916 : en:00:29:52.916
00:36:28.144 : en:00:36:28.144
00:40:32.430 : en:00:40:32.430
00:45:40.404 : en:00:45:40.404
00:52:14.548 : en:00:52:14.548
00:59:41.244 : en:00:59:41.244
01:05:08.196 : en:01:05:08.196
01:11:59.482 : en:01:11:59.482
01:17:07.248 : en:01:17:07.248
01:22:48.172 : en:01:22:48.172
01:29:07.050 : en:01:29:07.050
01:33:03.244 : en:01:33:03.244





Вернуться к началу
 Профиль Отправить личное сообщение  
Ответить с цитатой  
  • Торрент
Автор: Jinta Хэш: ---
Добавлен: 23 сен 2018, 17:47 Приватный: Нет (DHT включён)
Статус: Проверен
Размер: 4.04 ГБ (4 337 003 478 байт)
Изменил:
---
Скачали: 0 (Раздающих: 0%)
Причина:
---
Здоровье: 0%
Сидеров: 0 Личеров: 0
Скорость раздачи: 0 байт/сек Скорость скачивания: 0 байт/сек
Последний сидер: Нет Последний личер: Нет
Для скачивания торрента необходимо зарегистрироваться или войти на трекер.
Показать сообщения за:  Поле сортировки  
Начать новую тему Ответить на тему  [ 1 сообщение ] 


Кто сейчас на конференции

Сейчас этот форум просматривают: нет зарегистрированных пользователей и гости: 1


Вы не можете начинать темы
Вы не можете отвечать на сообщения
Вы не можете редактировать свои сообщения
Вы не можете удалять свои сообщения
Вы не можете добавлять вложения

Найти:
Перейти:  
cron
Создано на основе phpBB® Forum Software © phpBB Group
ppkBB3cker v.2.5 © 2008-2018 @ PPK | Icon Theme by Everaldo.com Design Studio
Русская поддержка phpBB
Ресурс не предоставляет электронные версии произведений, а занимается лишь коллекционированием и каталогизацией ссылок, присылаемых и публикуемых на форуме нашими читателями. Если вы являетесь правообладателем какого-либо представленного материала и не желаете чтобы ссылка на него находилась в нашем каталоге, свяжитесь с нами и мы незамедлительно удалим её. Файлы для обмена на трекере предоставлены пользователями сайта, и администрация не несёт ответственности за их содержание. Просьба не заливать файлы, защищенные авторскими правами, а также файлы нелегального содержания!