Jinta.ru

Полезный софт трекер





Начать новую тему Ответить на тему  [ 1 сообщение ] 
Автор Сообщение
СообщениеДобавлено: 28 окт 2018, 19:53 
Не в сети
Администратор
Аватара пользователя
Раздал: 581.07 ГБ
Скачал: 296.51 ГБ
Ратио: 1015.100


Зарегистрирован: 30 июл 2016, 22:43
Сообщения: 1826
Молчание / Silence


#777

Год выпуска: 2016
Страна: США, Тайвань, Мексика
Продолжительность: 02:41:09
Перевод: Профессиональный (дублированный) iTunes
Субтитры: Русские (форс., полные), английские (полные, хардсаб на японскую речь)
Оригинальная аудиодорожка: Английский
Жанр: Драма, история

Режиссер: Мартин Скорсезе / Martin Scorsese

В ролях:
Эндрю Гарфилд, Адам Драйвер, Лиам Нисон, Таданобу Асано, Киран Хайндс, Иссэй Огата, Синья Цукамото, Ёси Оида, Ёсукэ Кубодзука, Каору Эндо, Диего Кальдерон, Рафаэль Кэйдинг, Мэттью Блейк, Бенуа Массе, Тэцуя Игава, Ши Лян

Описание:
В середине 17 века два миссионера-иезуита, Родригес и Гарупе, отправляются в Японию, чтобы найти своего учителя - бесследно исчезнувшего католического священника отца Феррейро. Ходят упорные слухи, что Феррейро не погиб, а отрекся от своей веры и даже женился на местной. Прибыв на остров Кюсю, миссионеры оказываются в самом центре гонений японских властей на христиан, однако находят приют в провинциальной деревушке, жители которой тайно исповедуют христианство. Очутившись в пекле религиозной борьбы, отец Родригес все больше запутывается и сомневается в собственной вере. Вскоре весть о непрошенных гостях доходит до главного притеснителя христиан, который называет себя «инквизитором»...





Тип релиза: BDRemux 1080p
Контейнер: MKV
Видео: MPEG-4 AVC, 1080p, 1920x1080, 28705 kbps, 23.976 fps
Аудио 1: АС3, 6 ch, 48 kHz, 384 kbps Русский
Аудио 2: АС3, 2 ch, 48 kHz, 192 kbps Украинский
Аудио 3: DTS-HD MA 6 ch, 48 kHz, 2970 kbps, 24-bit (DTS Core: 6 ch, 48 kHz, 1509 kbps) Английский
Формат субтитров: SRT
Код:
General
Unique ID                                : 8163476813569539717562416642885607436 (0x6243A7B57AAE3EF3C7FBCC125EAE00C)
Complete name                            : G:\ФИЛЬМЫ\RuTRACKER\SILENCE.2016.REMUX.mkv
Format                                   : Matroska
Format version                           : Version 4 / Version 2
File size                                : 36.3 GiB
Duration                                 : 2 h 41 min
Overall bit rate mode                    : Variable
Overall bit rate                         : 32.3 Mb/s
Encoded date                             : UTC 2018-10-28 04:45:54
Writing application                      : mkvmerge v20.0.0 ('I Am The Sun') 64-bit
Writing library                          : libebml v1.3.5 + libmatroska v1.4.8
Video
ID                                       : 1
Format                                   : AVC
Format/Info                              : Advanced Video Codec
Format profile                           : High@L4.1
Format settings                          : CABAC / 4 Ref Frames
Format settings, CABAC                   : Yes
Format settings, RefFrames               : 4 frames
Codec ID                                 : V_MPEG4/ISO/AVC
Duration                                 : 2 h 41 min
Bit rate mode                            : Variable
Bit rate                                 : 28.7 Mb/s
Maximum bit rate                         : 35.0 Mb/s
Width                                    : 1 920 pixels
Height                                   : 1 080 pixels
Display aspect ratio                     : 16:9
Frame rate mode                          : Constant
Frame rate                               : 23.976 (24000/1001) FPS
Color space                              : YUV
Chroma subsampling                       : 4:2:0
Bit depth                                : 8 bits
Scan type                                : Progressive
Bits/(Pixel*Frame)                       : 0.577
Stream size                              : 32.3 GiB (89%)
Language                                 : English
Default                                  : Yes
Forced                                   : No
Audio #1
ID                                       : 2
Format                                   : AC-3
Format/Info                              : Audio Coding 3
Codec ID                                 : A_AC3
Duration                                 : 2 h 41 min
Bit rate mode                            : Constant
Bit rate                                 : 384 kb/s
Channel(s)                               : 6 channels
Channel positions                        : Front: L C R, Side: L R, LFE
Sampling rate                            : 48.0 kHz
Frame rate                               : 31.250 FPS (1536 SPF)
Bit depth                                : 16 bits
Compression mode                         : Lossy
Stream size                              : 442 MiB (1%)
Language                                 : Russian
Service kind                             : Complete Main
Default                                  : Yes
Forced                                   : No
Audio #2
ID                                       : 3
Format                                   : AC-3
Format/Info                              : Audio Coding 3
Codec ID                                 : A_AC3
Duration                                 : 2 h 41 min
Bit rate mode                            : Constant
Bit rate                                 : 192 kb/s
Channel(s)                               : 2 channels
Channel positions                        : Front: L R
Sampling rate                            : 48.0 kHz
Frame rate                               : 31.250 FPS (1536 SPF)
Bit depth                                : 16 bits
Compression mode                         : Lossy
Stream size                              : 221 MiB (1%)
Language                                 : Ukrainian
Service kind                             : Complete Main
Default                                  : No
Forced                                   : No
Audio #3
ID                                       : 4
Format                                   : DTS
Format/Info                              : Digital Theater Systems
Format profile                           : MA / Core
Codec ID                                 : A_DTS
Duration                                 : 2 h 41 min
Bit rate mode                            : Variable / Constant
Bit rate                                 : 2 970 kb/s / 1 509 kb/s
Channel(s)                               : 6 channels
Channel positions                        : Front: L C R, Side: L R, LFE
Sampling rate                            : 48.0 kHz
Frame rate                               : 93.750 FPS (512 SPF)
Bit depth                                : 24 bits
Compression mode                         : Lossless / Lossy
Stream size                              : 3.34 GiB (9%)
Language                                 : English
Default                                  : No
Forced                                   : No
Text #1
ID                                       : 5
Format                                   : UTF-8
Codec ID                                 : S_TEXT/UTF8
Codec ID/Info                            : UTF-8 Plain Text
Duration                                 : 2 h 35 min
Bit rate                                 : 0 b/s
Count of elements                        : 4
Stream size                              : 198 Bytes (0%)
Language                                 : Russian
Default                                  : Yes
Forced                                   : Yes
Text #2
ID                                       : 6
Format                                   : UTF-8
Codec ID                                 : S_TEXT/UTF8
Codec ID/Info                            : UTF-8 Plain Text
Duration                                 : 2 h 33 min
Bit rate                                 : 75 b/s
Count of elements                        : 1520
Stream size                              : 85.1 KiB (0%)
Language                                 : Russian
Default                                  : No
Forced                                   : No
Text #3
ID                                       : 7
Format                                   : UTF-8
Codec ID                                 : S_TEXT/UTF8
Codec ID/Info                            : UTF-8 Plain Text
Duration                                 : 2 h 31 min
Bit rate                                 : 42 b/s
Count of elements                        : 1492
Stream size                              : 46.6 KiB (0%)
Language                                 : English
Default                                  : No
Forced                                   : No
Menu
00:00:00.000                             : en:Chapter 1
00:12:59.903                             : en:Chapter 2
00:22:15.791                             : en:Chapter 3
00:33:21.708                             : en:Chapter 4
00:41:58.974                             : en:Chapter 5
00:51:14.028                             : en:Chapter 6
01:03:15.291                             : en:Chapter 7
01:10:57.127                             : en:Chapter 8
01:22:59.099                             : en:Chapter 9
01:30:19.912                             : en:Chapter 10
01:41:49.645                             : en:Chapter 11
01:47:57.011                             : en:Chapter 12
01:54:46.546                             : en:Chapter 13
02:10:37.162                             : en:Chapter 14
02:19:11.049                             : en:Chapter 15
02:34:22.378                             : en:Chapter 16


Вернуться к началу
 Профиль Отправить личное сообщение  
Ответить с цитатой  
  • Торрент
Автор: Jinta Хэш: ---
Добавлен: 28 окт 2018, 19:53 Приватный: Нет (DHT включён)
Статус: Проверен
Размер: 36.31 ГБ (38 986 367 967 байт)
Изменил:
---
Скачали: 0 (Раздающих: 100%)
Причина:
---
Здоровье: 100%
Сидеров: 9 Личеров: 3
Скорость раздачи: 0 байт/сек Скорость скачивания: 0 байт/сек
Последний сидер: 8 дней 12 часов 54 минуты 21 секунду назад Последний личер: 8 дней 12 часов 54 минуты 21 секунду назад
Для скачивания торрента необходимо зарегистрироваться или войти на трекер.
Показать сообщения за:  Поле сортировки  
Начать новую тему Ответить на тему  [ 1 сообщение ] 


Кто сейчас на конференции

Сейчас этот форум просматривают: нет зарегистрированных пользователей и гости: 1


Вы не можете начинать темы
Вы не можете отвечать на сообщения
Вы не можете редактировать свои сообщения
Вы не можете удалять свои сообщения
Вы не можете добавлять вложения

Найти:
Перейти:  
cron
Создано на основе phpBB® Forum Software © phpBB Group
ppkBB3cker v.2.5 © 2008-2018 @ PPK | Icon Theme by Everaldo.com Design Studio
Русская поддержка phpBB
Ресурс не предоставляет электронные версии произведений, а занимается лишь коллекционированием и каталогизацией ссылок, присылаемых и публикуемых на форуме нашими читателями. Если вы являетесь правообладателем какого-либо представленного материала и не желаете чтобы ссылка на него находилась в нашем каталоге, свяжитесь с нами и мы незамедлительно удалим её. Файлы для обмена на трекере предоставлены пользователями сайта, и администрация не несёт ответственности за их содержание. Просьба не заливать файлы, защищенные авторскими правами, а также файлы нелегального содержания!