Jinta.ru

Полезный софт трекер





Начать новую тему Ответить на тему  [ 1 сообщение ] 
Автор Сообщение
СообщениеДобавлено: 01 ноя 2018, 11:42 
Не в сети
VIP
Раздал: 0 байт
Скачал: 0 байт
Ратио: None.


Зарегистрирован: 23 май 2018, 16:47
Сообщения: 48
Чужой лес / Timber Falls


#777

Информация о фильме
Название: Чужой лес
Оригинальное название: Timber Falls
Год выпуска: 2007
Выпущено: США, A-Mark Entertainment, Ascendant Pictures, Film Tiger, Rifkin-Eberts
Продолжительность: 01:36:27
Перевод: Дублированный, авторский
Субтитры: Русские, английские
Навигация по главам: Есть
Жанр: Ужасы, триллер

Режиссер: Тони Гиглио

В ролях:
Джош Рэндэлл, Брианна Браун, Ник Сирси, Бет Бродерик, Саша Роузманн, Т.У. Лешнер, Бренден Р. Морган, Райан МакГи, Карл Бресслер, Дэбби Джаффе

О фильме:
Решив устроить себе увлекательный отдых, Майк и Шерил отправляются в горы. Но долго наслаждаться отдыхом им не суждено: утром Шерил бесследно исчезает. Разыскивая любимую, Майк отправляется вглубь леса, где прекрасная природа, так радовавшая вчера, вдруг превращается во враждебное и полное опасностей место. Он буквально физически начинает ощущать чье-то присутствие. Неожиданно получив сильный удар по голове, Майк теряет сознание. Очнувшись связанным по рукам и ногам в сыром подвале, он видит, распятую на деревянном кресте, Шерил...





Файл
Качество: BDRip 720p
Видео: MPEG-4 AVC, 6898 Кбит/сек, 1278x718, 25,000 кадров/сек
Аудио #1: AC3, 6 ch, 448 Кбит/сек | Русский, профессиональный (полное дублирование)
Аудио #2: AC3, 2 ch, 192 Кбит/сек | Русский, авторский (одноголосый закадровый) Андрей Дольский
Аудио #3: AC3, 6 ch, 448 Кбит/сек | Английский, оригинал


x264 [info]: frame I:882 Avg QP:16.51 size:100942
x264 [info]: frame P:28980 Avg QP:18.66 size: 55536
x264 [info]: frame B:114824 Avg QP:20.32 size: 28610
-----------------------------------------------------
Общее
Уникальный идентификатор : 220197383954646400730295147764717685411 (0xA5A8793A23E2A323878FC94FCB678AA3)
Полное имя : Чужой.лес.2007.BDRip.720p.KORSAR.mkv
Формат : Matroska
Версия формата : Version 2
Размер файла : 5,38 Гбайт
Продолжительность : 1 ч. 36 м.
Общий поток : 7979 Кбит/сек
Дата кодирования : UTC 2018-10-30 21:28:43
Программа кодирования : mkvmerge v5.8.0 ('No Sleep / Pillow') built on Sep 2 2012 15:37:04
Библиотека кодирования : libebml v1.2.3 + libmatroska v1.3.0

Видео
Идентификатор : 1
Формат : AVC
Формат/Информация : Advanced Video Codec
Профиль формата : High@L4.1
Настройки формата : CABAC / 9 Ref Frames
Параметр CABAC формата : Да
Параметр RefFrames формата : 9 кадров
Идентификатор кодека : V_MPEG4/ISO/AVC
Продолжительность : 1 ч. 36 м.
Битрейт : 6898 Кбит/сек
Ширина : 1278 пикселей
Высота : 718 пикселей
Соотношение сторон : 16:9
Режим частоты кадров : Постоянный
Частота кадров : 25,000 кадров/сек
Цветовое пространство : YUV
Субдискретизация насыщенности : 4:2:0
Битовая глубина : 8 бит
Тип развёртки : Прогрессивная
Бит/(Пиксели*Кадры) : 0.301
Размер потока : 4,54 Гбайт (84%)
Заголовок : RIP | MZMA
Библиотека кодирования : x264 core 152 r2851kMod ba24899
Настройки программы : cabac=1 / ref=9 / deblock=1:-2:-2 / analyse=0x3:0x113 / me=umh / subme=11 / psy=1 / fade_compensate=0.00 / psy_rd=1.00:0.00 / mixed_ref=1 / me_range=48 / chroma_me=1 / trellis=2 / 8x8dct=1 / cqm=0 / deadzone=21,11 / fast_pskip=0 / chroma_qp_offset=-2 / threads=6 / lookahead_threads=1 / sliced_threads=0 / nr=0 / decimate=0 / interlaced=0 / bluray_compat=0 / constrained_intra=0 / bframes=16 / b_pyramid=2 / b_adapt=2 / b_bias=0 / direct=3 / weightb=1 / open_gop=0 / weightp=2 / keyint=240 / keyint_min=24 / scenecut=40 / intra_refresh=0 / rc_lookahead=40 / rc=2pass / mbtree=0 / bitrate=6898 / ratetol=1.0 / qcomp=0.60 / qpmin=0 / qpmax=69 / qpstep=4 / cplxblur=20.0 / qblur=0.5 / vbv_maxrate=50000 / vbv_bufsize=62500 / nal_hrd=none / filler=0 / ip_ratio=1.27 / pb_ratio=1.30 / aq=3:0.90
Язык : English
По умолчанию : Да
Принудительно : Нет
Цветовой диапазон : Limited
Основные цвета : BT.709
Характеристики трансфера : BT.709
Коэффициенты матрицы : BT.709

Аудио #1
Идентификатор : 2
Формат : AC-3
Формат/Информация : Audio Coding 3
Идентификатор кодека : A_AC3
Продолжительность : 1 ч. 36 м.
Вид битрейта : Постоянный
Битрейт : 448 Кбит/сек
Каналы : 6 каналов
Расположение каналов : Front: L C R, Side: L R, LFE
Частота : 48,0 КГц
Частота кадров : 31,250 кадров/сек (1536 SPF)
Битовая глубина : 16 бит
Метод сжатия : С потерями
Размер потока : 309 Мбайт (6%)
Заголовок : DUB
Язык : Russian
По умолчанию : Да
Принудительно : Нет

Аудио #2
Идентификатор : 3
Формат : AC-3
Формат/Информация : Audio Coding 3
Идентификатор кодека : A_AC3
Продолжительность : 1 ч. 36 м.
Вид битрейта : Постоянный
Битрейт : 192 Кбит/сек
Каналы : 2 канала
Расположение каналов : Front: L R
Частота : 48,0 КГц
Частота кадров : 31,250 кадров/сек (1536 SPF)
Битовая глубина : 16 бит
Метод сжатия : С потерями
Размер потока : 132 Мбайт (2%)
Заголовок : AVO | А. Дольский
Язык : Russian
По умолчанию : Нет
Принудительно : Нет

Аудио #3
Идентификатор : 4
Формат : AC-3
Формат/Информация : Audio Coding 3
Идентификатор кодека : A_AC3
Продолжительность : 1 ч. 36 м.
Вид битрейта : Постоянный
Битрейт : 448 Кбит/сек
Каналы : 6 каналов
Расположение каналов : Front: L C R, Side: L R, LFE
Частота : 48,0 КГц
Частота кадров : 31,250 кадров/сек (1536 SPF)
Битовая глубина : 16 бит
Метод сжатия : С потерями
Размер потока : 309 Мбайт (6%)
Заголовок : Original
Язык : English
По умолчанию : Нет
Принудительно : Нет

Текст #1
Идентификатор : 5
Формат : UTF-8
Идентификатор кодека : S_TEXT/UTF8
Идентификатор кодека/Информация : UTF-8 Plain Text
Язык : Russian
По умолчанию : Нет
Принудительно : Нет

Текст #2
Идентификатор : 6
Формат : UTF-8
Идентификатор кодека : S_TEXT/UTF8
Идентификатор кодека/Информация : UTF-8 Plain Text
Язык : English
По умолчанию : Нет
Принудительно : Нет

Меню
00:00:00.000 : en:00:00:00.000
00:08:23.600 : en:00:08:23.600
00:16:53.520 : en:00:16:53.520
00:25:19.000 : en:00:25:19.000
00:32:41.000 : en:00:32:41.000
00:40:49.120 : en:00:40:49.120
00:48:49.200 : en:00:48:49.200
00:58:20.760 : en:00:58:20.760
01:04:54.680 : en:01:04:54.680
01:14:27.240 : en:01:14:27.240
01:19:56.600 : en:01:19:56.600
01:29:36.000 : en:01:29:36.000


Релиз от:


Вернуться к началу
 Профиль Отправить личное сообщение  
Ответить с цитатой  
  • Торрент
Автор: Rufus Хэш: ---
Добавлен: 01 ноя 2018, 11:42 Приватный: Нет (DHT включён)
Статус: Проверен
Размер: 5.38 ГБ (5 772 533 992 байт)
Изменил:
---
Скачали: 3 (Раздающих: 67%)
Причина:
---
Здоровье: 100%
Сидеров: 2 Личеров: 0
Скорость раздачи: 0 байт/сек Скорость скачивания: 0 байт/сек
Последний сидер: 8 дней 12 часов 53 минуты 44 секунды назад Последний личер: Нет
Для скачивания торрента необходимо зарегистрироваться или войти на трекер.
Показать сообщения за:  Поле сортировки  
Начать новую тему Ответить на тему  [ 1 сообщение ] 


Кто сейчас на конференции

Сейчас этот форум просматривают: нет зарегистрированных пользователей и гости: 1


Вы не можете начинать темы
Вы не можете отвечать на сообщения
Вы не можете редактировать свои сообщения
Вы не можете удалять свои сообщения
Вы не можете добавлять вложения

Найти:
Перейти:  
cron
Создано на основе phpBB® Forum Software © phpBB Group
ppkBB3cker v.2.5 © 2008-2018 @ PPK | Icon Theme by Everaldo.com Design Studio
Русская поддержка phpBB
Ресурс не предоставляет электронные версии произведений, а занимается лишь коллекционированием и каталогизацией ссылок, присылаемых и публикуемых на форуме нашими читателями. Если вы являетесь правообладателем какого-либо представленного материала и не желаете чтобы ссылка на него находилась в нашем каталоге, свяжитесь с нами и мы незамедлительно удалим её. Файлы для обмена на трекере предоставлены пользователями сайта, и администрация не несёт ответственности за их содержание. Просьба не заливать файлы, защищенные авторскими правами, а также файлы нелегального содержания!