Jinta.ru

Полезный софт трекер





Начать новую тему Ответить на тему  [ 1 сообщение ] 
Автор Сообщение
СообщениеДобавлено: 08 янв 2019, 22:29 
Не в сети
Администратор
Аватара пользователя
Раздал: 1.06 ТБ
Скачал: 469.68 ГБ
Ратио: 1024.360


Зарегистрирован: 30 июл 2016, 22:43
Сообщения: 2092
Логово Монстра / Bad Samaritan


#777

Год выпуска: 2018
Страна:США
Продолжительность: 01:50:10
Перевод: Профессиональный (дублированный) iTunes
Оригинальная аудиодорожка:есть
Субтитры: русские (Full), английские (Full) <<->> [srt.]
Жанр: триллер, криминал

Режиссер:Дин Девлин / Dean Devlin

В ролях:
Дэвид Теннант, Керри Кондон, Роберт Шиэн, Жаклин Байерс, Лиза Бреннер, Ханна Бэйрфут, Карлито Оливеро, Роб Нэгл, Дэна Милликэн, Тони Дуп

Описание:
Двое парней, работая парковщиками у элитного ресторана, успешно обчищают дома богатых посетителей, пока те наслаждаются изысканной кухней. Однажды один из подельников, вломившись в чужой особняк, кроме богатой добычи обнаруживает истерзанную пленницу, крепко связанную и скованную цепями. Пытаясь спасти девушку, он сам все глубже попадает в западню жестокого монстра.


Дополнительная информация:

Сэмпл

Качество видео: BDRip-AVC
Формат видео: MKV
Видео: AVC (x264), 1152x482 (2.39:1), 23.976 fps, 2067 kbps, 0.155 bit/pixel
Аудио № 1 /Rus/: 48 kHz, AC3 Dolby Digital, 3/2 (L,C,R,l,r) + LFE ch, 384 kbps <<->> (Дубляж)
Аудио № 2 /Eng/: 48 kHz, AC3 Dolby Digital, 3/2 (L,C,R,l,r) + LFE ch, 384 kbps <<->> (Оригинал-Eng)
Главы: Есть




x264 [info]: frame I:1324 Avg QP:12.18 size: 82584
x264 [info]: frame P:32141 Avg QP:15.33 size: 25196
x264 [info]: frame B:125031 Avg QP:17.80 size: 6306
x264 [info]: consecutive B-frames: 1.5% 1.8% 4.7% 27.6% 14.9% 26.4% 6.9% 9.7% 2.9% 0.8% 1.4% 1.1% 0.2% 0.1%
x264 [info]: mb I I16..4: 13.6% 64.2% 22.3%
x264 [info]: mb P I16..4: 0.7% 9.4% 1.8% P16..4: 30.4% 39.6% 14.2% 0.0% 0.0% skip: 4.0%
x264 [info]: mb B I16..4: 0.1% 0.9% 0.2% B16..8: 34.9% 22.3% 3.2% direct: 3.7% skip:34.8% L0:45.5% L1:44.4% BI:10.1%
x264 [info]: 8x8 transform intra:75.0% inter:52.2%
x264 [info]: direct mvs spatial:98.9% temporal:1.1%
x264 [info]: coded y,uvDC,uvAC intra: 84.9% 84.8% 70.3% inter: 15.1% 18.1% 12.8%
x264 [info]: i16 v,h,dc,p: 20% 11% 17% 52%
x264 [info]: i8 v,h,dc,ddl,ddr,vr,hd,vl,hu: 19% 10% 11% 8% 10% 11% 10% 11% 11%
x264 [info]: i4 v,h,dc,ddl,ddr,vr,hd,vl,hu: 36% 7% 6% 7% 10% 10% 9% 8% 8%
x264 [info]: i8c dc,h,v,p: 38% 27% 22% 14%
x264 [info]: Weighted P-Frames: Y:5.5% UV:2.4%
x264 [info]: ref P L0: 52.4% 7.0% 14.9% 7.1% 5.3% 4.0% 3.4% 1.9% 1.5% 1.3% 1.0% 0.0% 0.0%
x264 [info]: ref B L0: 73.6% 12.6% 5.6% 2.8% 1.9% 1.4% 1.1% 0.6% 0.4% 0.1%
x264 [info]: ref B L1: 94.6% 5.4%
x264 [info]: kb/s:2066.54
General
Unique ID : 240437591297682698475713445556258857749 (0xB4E2987EB957B0D69076F6607C2FE315)
Complete name : T:\Razdachi\Логово монстра\Logovo_monstra_(2018).BDRip-AVC.ac3.Dub.Eng.Sub.[All.Films][RG].mkv
Format : Matroska
Format version : Version 2
File size : 2.18 GiB
Duration : 1 h 50 min
Overall bit rate : 2 836 kb/s
Movie name : Логово Монстра / Bad Samaritan (2018) BDRip-AVC | <VIRUS> [All.Films][RG][rutracker.org]
Encoded date : UTC 2018-12-09 16:59:36
Writing application : mkvmerge v6.9.1 ('Blue Panther') 32bit built on Apr 18 2014 18:15:44
Writing library : libebml v1.3.0 + libmatroska v1.4.1
Video
ID : 1
Format : AVC
Format/Info : Advanced Video Codec
Format profile : High@L4.1
Format settings : CABAC / 11 Ref Frames
Format settings, CABAC : Yes
Format settings, ReFrames : 11 frames
Codec ID : V_MPEG4/ISO/AVC
Duration : 1 h 50 min
Bit rate : 2 067 kb/s
Width : 1 152 pixels
Height : 482 pixels
Display aspect ratio : 2.40:1
Frame rate mode : Constant
Frame rate : 23.976 (24000/1001) FPS
Color space : YUV
Chroma subsampling : 4:2:0
Bit depth : 8 bits
Scan type : Progressive
Bits/(Pixel*Frame) : 0.155
Stream size : 1.55 GiB (71%)
Writing library : x264 core 157 r2935 545de2f
Encoding settings : cabac=1 / ref=11 / deblock=1:-3:-2 / analyse=0x3:0x113 / me=umh / subme=11 / psy=1 / psy_rd=1.00:0.10 / mixed_ref=1 / me_range=42 / chroma_me=1 / trellis=2 / 8x8dct=1 / cqm=0 / deadzone=21,11 / fast_pskip=0 / chroma_qp_offset=-3 / threads=6 / lookahead_threads=1 / sliced_threads=0 / nr=0 / decimate=0 / interlaced=0 / bluray_compat=0 / constrained_intra=0 / bframes=13 / b_pyramid=2 / b_adapt=2 / b_bias=0 / direct=3 / weightb=1 / open_gop=0 / weightp=2 / keyint=240 / keyint_min=23 / scenecut=40 / intra_refresh=0 / rc_lookahead=60 / rc=2pass / mbtree=0 / bitrate=2067 / ratetol=1.0 / qcomp=0.60 / qpmin=0 / qpmax=69 / qpstep=4 / cplxblur=20.0 / qblur=0.5 / vbv_maxrate=50000 / vbv_bufsize=62500 / nal_hrd=none / filler=0 / ip_ratio=1.40 / pb_ratio=1.30 / aq=3:0.90 / zones=153800,158496,q=30
Default : Yes
Forced : No
Audio #1
ID : 2
Format : AC-3
Format/Info : Audio Coding 3
Commercial name : Dolby Digital
Codec ID : A_AC3
Duration : 1 h 50 min
Bit rate mode : Constant
Bit rate : 384 kb/s
Channel(s) : 6 channels
Channel layout : L R C LFE Ls Rs
Sampling rate : 48.0 kHz
Frame rate : 31.250 FPS (1536 SPF)
Bit depth : 16 bits
Compression mode : Lossy
Stream size : 303 MiB (14%)
Title : Дубляж
Language : Russian
Service kind : Complete Main
Default : Yes
Forced : No
Audio #2
ID : 3
Format : AC-3
Format/Info : Audio Coding 3
Commercial name : Dolby Digital
Codec ID : A_AC3
Duration : 1 h 50 min
Bit rate mode : Constant
Bit rate : 384 kb/s
Channel(s) : 6 channels
Channel layout : L R C LFE Ls Rs
Sampling rate : 48.0 kHz
Frame rate : 31.250 FPS (1536 SPF)
Bit depth : 16 bits
Compression mode : Lossy
Stream size : 303 MiB (14%)
Title : Оригинал
Language : English
Service kind : Complete Main
Default : No
Forced : No
Text #1
ID : 4
Format : UTF-8
Codec ID : S_TEXT/UTF8
Codec ID/Info : UTF-8 Plain Text
Title : Full
Language : Russian
Default : No
Forced : No
Text #2
ID : 5
Format : UTF-8
Codec ID : S_TEXT/UTF8
Codec ID/Info : UTF-8 Plain Text
Title : Full
Language : English
Default : No
Forced : No
Menu
00:00:00.000 : en:00:00:00.000
00:06:21.047 : en:00:06:21.047
00:12:34.921 : en:00:12:34.921
00:20:14.171 : en:00:20:14.171
00:31:01.485 : en:00:31:01.485
00:39:04.133 : en:00:39:04.133
00:44:44.599 : en:00:44:44.599
00:48:39.917 : en:00:48:39.917
00:56:36.476 : en:00:56:36.476
01:02:38.880 : en:01:02:38.880
01:10:56.627 : en:01:10:56.627
01:17:26.100 : en:01:17:26.100
01:23:51.818 : en:01:23:51.818
01:27:36.418 : en:01:27:36.418
01:33:58.633 : en:01:33:58.633
01:41:45.099 : en:01:41:45.099


Вернуться к началу
 Профиль Отправить личное сообщение  
Ответить с цитатой  
  • Торрент
Автор: Jinta Хэш: ---
Добавлен: 08 янв 2019, 22:29 Приватный: Нет (DHT включён)
Статус: Проверен
Размер: 2.18 ГБ (2 343 833 962 байт)
Изменил:
---
Скачали: 0 (Раздающих: 100%)
Причина:
---
Здоровье: 100%
Сидеров: 34 Личеров: 11
Скорость раздачи: 0 байт/сек Скорость скачивания: 0 байт/сек
Последний сидер: 19 дней 23 часа 4 минуты 18 секунд назад Последний личер: 19 дней 23 часа 4 минуты 18 секунд назад
Для скачивания торрента необходимо зарегистрироваться или войти на трекер.
Показать сообщения за:  Поле сортировки  
Начать новую тему Ответить на тему  [ 1 сообщение ] 


Кто сейчас на конференции

Сейчас этот форум просматривают: Google [Bot] и гости: 1


Вы не можете начинать темы
Вы не можете отвечать на сообщения
Вы не можете редактировать свои сообщения
Вы не можете удалять свои сообщения
Вы не можете добавлять вложения

Найти:
Перейти:  
cron
Создано на основе phpBB® Forum Software © phpBB Group
ppkBB3cker v.2.5 © 2008-2019 @ PPK | Icon Theme by Everaldo.com Design Studio
Русская поддержка phpBB
Ресурс не предоставляет электронные версии произведений, а занимается лишь коллекционированием и каталогизацией ссылок, присылаемых и публикуемых на форуме нашими читателями. Если вы являетесь правообладателем какого-либо представленного материала и не желаете чтобы ссылка на него находилась в нашем каталоге, свяжитесь с нами и мы незамедлительно удалим её. Файлы для обмена на трекере предоставлены пользователями сайта, и администрация не несёт ответственности за их содержание. Просьба не заливать файлы, защищенные авторскими правами, а также файлы нелегального содержания!