Jinta.ru

Полезный софт трекер





Начать новую тему Ответить на тему  [ 1 сообщение ] 
Автор Сообщение
СообщениеДобавлено: 08 янв 2019, 22:56 
Не в сети
Администратор
Аватара пользователя
Раздал: 1 ТБ
Скачал: 455.05 ГБ
Ратио: 1021.336


Зарегистрирован: 30 июл 2016, 22:43
Сообщения: 2004
Леденец / Hard Candy


#777
Год выпуска: 2005
Страна: США
Продолжительность: 01:44:07
Перевод: Профессиональный (полное дублирование)
Субтитры: русские, английские
Оригинальная аудиодорожка: английский
Жанр: Триллер, драма

Режиссер: Дэвид Слэйд

В ролях:
Патрик Уилсон, Эллен Пейдж, Сандра О, Одесса Рэй, Гилберт Джон

Описание:
14-летняя «Лолита» знакомится в интернете с 32-летним успешным фотографом Джефом Коулером. Он приглашает ее к себе домой. Подозревая, что Джефф является педофилом, и, стремясь разоблачить его, она отвечает согласием…

Доп. информация:

User Rating: 7.2/10 (45,531 votes)

Рип с нового американского Blu-Ray, содержащего видео 1080p
(до этого исходником всех раздач было видео 1080i, да ещё и пересвеченное какое-то).
[color=blue][b]С любой одной дорожкой рип умещается на DVD5.


Качество: BDRip
Формат: MKV
Видео кодек: H.264
Аудио кодек: DTS
Видео: 1280x552, 4497 kbps, 23.976 fps
Аудио 1: Русский DTS 5.1, 48 KHz, 1536 kbps
Аудио 2: Английский DTS 5.1, 48 KHz, 1536 kbps
Субтитры: Русские (с лицензии), русские (Versetti), английские, английские (для плохо слышащих)

Цитата:
Цитата:
R1 DVD-5 (4,35Gb - диск, 2.38Gb - видео) 104 мин. [NTSC ан 2.35:1] Кач.видео норм. Ср.битрейт 4.85 Мбит/сек. Меню англ аним озв. Англ.5.1 (448). Рус.5.1 (448), многоголосый войсовер, Рус.DTS (768), многоголосый войсовер. Титры: англ, испан. Допы: deleted and extended scenes (6 штук). Глюки: в допах три одинаковых дорожки и ссылки на пустые субтитры; в русских дорожках чат в начале фильма не переведен; русский перевод по смыслу бредовый.

Цитата:
Цитата:
был перевод еще до лицензионного дубляжа(появился сразу после скринера). причем сама озвучка была весьма профессиональная. у меня в сети ашдэ-рип лежал именно с такой дорогой. и я ее с дуру принял за лицуху. так вот в ней не прозвучало ни исповеди джефа про тётку дениз, ни имени Аарон в финальном диалоге.. и еще много чего не было.

Общее
Уникальный идентификатор : 222316192359825423323994661744383768031 (0xA7408A8C01111FF48D5B6552683635DF)
Полное имя : T:\Hard Candy.2005.BD.Rip.720p.h264.Rus.Eng.mkv
Формат : Matroska
Версия формата : Version 2
Размер файла : 5,47 Гбайт
Продолжительность : 1 ч. 44 м.
Общий поток : 7518 Кбит/сек
Дата кодирования : UTC 2010-09-20 12:49:21
Программа кодирования : mkvmerge v3.4.0 ('Rapunzel') built on May 15 2010 09:38:20
Библиотека кодирования : libebml v0.8.0 + libmatroska v0.9.0
Видео
Идентификатор : 1
Формат : AVC
Формат/Информация : Advanced Video Codec
Профиль формата : High@L4.1
Параметр CABAC формата : Да
Параметр ReFrames формата : 10 кадров
Идентификатор кодека : V_MPEG4/ISO/AVC
Продолжительность : 1 ч. 44 м.
Битрейт : 4497 Кбит/сек
Ширина : 1280 пикселей
Высота : 552 пикселя
Соотношение сторон : 2,35:1
Режим частоты кадров : Постоянный
Частота кадров : 23,976 кадра/сек
Цветовое пространство : YUV
Субдискретизация насыщенности : 4:2:0
Битовая глубина : 8 бит
Тип развёртки : Прогрессивная
Бит/(Пиксели*Кадры) : 0.265
Размер потока : 3,16 Гбайт (58%)
Библиотека кодирования : x264 core 104 r1713 c276662
Настройки программы : cabac=1 / ref=10 / deblock=1:-3:-3 / analyse=0x3:0x113 / me=umh / subme=10 / psy=1 / psy_rd=1.00:0.00 / mixed_ref=1 / me_range=32 / chroma_me=1 / trellis=2 / 8x8dct=1 / cqm=0 / deadzone=21,11 / fast_pskip=0 / chroma_qp_offset=-2 / threads=6 / sliced_threads=0 / nr=0 / decimate=0 / interlaced=0 / constrained_intra=0 / bframes=10 / b_pyramid=2 / b_adapt=2 / b_bias=0 / direct=3 / weightb=1 / open_gop=0 / weightp=2 / keyint=250 / keyint_min=23 / scenecut=40 / intra_refresh=0 / rc=2pass / mbtree=0 / bitrate=4497 / ratetol=1.0 / qcomp=0.60 / qpmin=10 / qpmax=51 / qpstep=4 / cplxblur=20.0 / qblur=0.5 / ip_ratio=1.40 / pb_ratio=1.30 / aq=1:0.50
Язык : English
Default : Да
Forced : Нет
Аудио #1
Идентификатор : 2
Формат : DTS
Формат/Информация : Digital Theater Systems
Режим : 16
Параметр Endianness формата : Big
Идентификатор кодека : A_DTS
Продолжительность : 1 ч. 44 м.
Вид битрейта : Постоянный
Битрейт : 1510 Кбит/сек
Каналы : 6 каналов
Расположение каналов : Front: L C R, Side: L R, LFE
Частота : 48,0 КГц
Битовая глубина : 24 бит
Метод сжатия : С потерями
Размер потока : 1,10 Гбайт (20%)
Заголовок : Dublyazh DTS 5.1 1536 kbps
Язык : Russian
Default : Да
Forced : Нет
Аудио #2
Идентификатор : 3
Формат : DTS
Формат/Информация : Digital Theater Systems
Режим : 16
Параметр Endianness формата : Big
Идентификатор кодека : A_DTS
Продолжительность : 1 ч. 44 м.
Вид битрейта : Постоянный
Битрейт : 1509 Кбит/сек
Каналы : 6 каналов
Расположение каналов : Front: L C R, Side: L R, LFE
Частота : 48,0 КГц
Битовая глубина : 24 бит
Метод сжатия : С потерями
Размер потока : 1,10 Гбайт (20%)
Заголовок : DTS 5.1 1536 kbps
Язык : English
Default : Нет
Forced : Нет
Текст #1
Идентификатор : 4
Формат : UTF-8
Идентификатор кодека : S_TEXT/UTF8
Идентификатор кодека/Информация : UTF-8 Plain Text
Заголовок : License
Язык : Russian
Default : Нет
Forced : Нет
Текст #2
Идентификатор : 5
Формат : UTF-8
Идентификатор кодека : S_TEXT/UTF8
Идентификатор кодека/Информация : UTF-8 Plain Text
Заголовок : Versetti
Язык : Russian
Default : Нет
Forced : Нет
Текст #3
Идентификатор : 6
Формат : UTF-8
Идентификатор кодека : S_TEXT/UTF8
Идентификатор кодека/Информация : UTF-8 Plain Text
Язык : English
Default : Нет
Forced : Нет
Текст #4
Идентификатор : 7
Формат : UTF-8
Идентификатор кодека : S_TEXT/UTF8
Идентификатор кодека/Информация : UTF-8 Plain Text
Заголовок : SDH
Язык : English
Default : Нет
Forced : Нет
Меню
00:00:00.000 : en:1. Main Titles
00:02:08.086 : en:2. "Faces Lie"
00:05:39.130 : en:3. First Impressions
00:10:34.676 : en:4. Home
00:14:26.282 : en:5. "Take It All"
00:17:36.305 : en:6. Lonely
00:20:17.216 : en:7. Drugged
00:25:55.345 : en:8. "Busted"
00:30:01.925 : en:9. Voyeur or Conservationist
00:33:47.567 : en:10. Hide & Seek
00:37:08.351 : en:11. Found
00:39:04.884 : en:12. Combinations
00:43:47.667 : en:13. Opportunity
00:46:51.225 : en:14. Preparation
00:50:56.011 : en:15. Plea
00:54:49.077 : en:16. So Close...
01:00:17.906 : en:17. Memories
01:03:19.087 : en:18. Incision
01:08:10.253 : en:19. Post-op
01:12:35.142 : en:20. "I'll Find You"
01:16:42.431 : en:21. Freedom
01:19:48.701 : en:22. Summons
01:22:25.274 : en:23. Unexpected Visitor
01:26:57.754 : en:24. Offer
01:30:34.012 : en:25. "Who Are You?"
01:35:59.587 : en:26. Only Way Out
01:38:40.123 : en:27. Promise
01:40:35.446 : en:28. End Credits


Вернуться к началу
 Профиль Отправить личное сообщение  
Ответить с цитатой  
  • Торрент
Автор: Jinta Хэш: ---
Добавлен: 08 янв 2019, 22:56 Приватный: Нет (DHT включён)
Статус: Проверен
Размер: 5.47 ГБ (5 871 325 052 байт)
Изменил:
---
Скачали: 0 (Раздающих: 100%)
Причина:
---
Здоровье: 100%
Сидеров: 5 Личеров: 1
Скорость раздачи: 0 байт/сек Скорость скачивания: 0 байт/сек
Последний сидер: 14 дней 4 часа 24 секунды назад Последний личер: 14 дней 4 часа 24 секунды назад
Для скачивания торрента необходимо зарегистрироваться или войти на трекер.
Показать сообщения за:  Поле сортировки  
Начать новую тему Ответить на тему  [ 1 сообщение ] 


Кто сейчас на конференции

Сейчас этот форум просматривают: нет зарегистрированных пользователей и гости: 1


Вы не можете начинать темы
Вы не можете отвечать на сообщения
Вы не можете редактировать свои сообщения
Вы не можете удалять свои сообщения
Вы не можете добавлять вложения

Найти:
Перейти:  
cron
Создано на основе phpBB® Forum Software © phpBB Group
ppkBB3cker v.2.5 © 2008-2018 @ PPK | Icon Theme by Everaldo.com Design Studio
Русская поддержка phpBB
Ресурс не предоставляет электронные версии произведений, а занимается лишь коллекционированием и каталогизацией ссылок, присылаемых и публикуемых на форуме нашими читателями. Если вы являетесь правообладателем какого-либо представленного материала и не желаете чтобы ссылка на него находилась в нашем каталоге, свяжитесь с нами и мы незамедлительно удалим её. Файлы для обмена на трекере предоставлены пользователями сайта, и администрация не несёт ответственности за их содержание. Просьба не заливать файлы, защищенные авторскими правами, а также файлы нелегального содержания!