Jinta.ru

Полезный софт трекер





Начать новую тему Ответить на тему  [ 1 сообщение ] 
Автор Сообщение
СообщениеДобавлено: 04 фев 2019, 13:57 
Не в сети
VIP
Раздал: 370.2 МБ
Скачал: 5.66 ГБ
Ратио: None.


Зарегистрирован: 23 май 2018, 16:47
Сообщения: 113
Дитя во времени / The Child in Time


#777

Год выпуска: 2017
Страна: Великобритания
Производство: BBC Television Centre, Masterpiece, SunnyMarch, Twelve Town
Продолжительность: 01:29:37
Перевод: Профессиональный (многоголосый, закадровый) | Первый канал
Субтитры: русские, английские, немецкие, голландские, итальянские, французские, испанские
Жанр: драма


Режиссер: Джулиан Фарино / Julian Farino

В ролях: Бенедикт Камбербэтч, Келли Макдоналд, Стивен Кэмпбелл Мур, Саския Ривз, Андреа Холл, Джим Крейтон, Фрэнсис Эшман

Описание:
Однажды неожиданно исчезает четырёхлетняя дочь успешного детского писателя Стивена Льюиса. Два года спустя после трагедии, отчаявшись найти ребёнка, Льюис пытается смириться с произошедшим и начать жить заново самостоятельно, поскольку жена ушла от него, а друзья борются с собственными демонами...





Качество: BDRip 1080p | исходник Blu-Ray (GЕR) - Ein.Kind.zur.Zeit.2018.DUAL.COMPLETE.BLURAY-QUANTiCA
Формат: MKV
Видео кодек: AVC
Аудио кодек: АС3 | DTS
Видео: 1920x1080 (16:9), 25.000 fps, MPEG-4 AVC ~13.3 Мbps avg
Аудио №1: 48.0 kHz, AC3 Dolby Digital, 2/0 (L,R) ch, ~192 kbps | RUS / Первый канал
Аудио №2: 48.0 kHz, Digital Theater Systems, 3/2 (L,C,R,l,r) + LFE ch, ~1509 kbps | ENG
Формат субтитров: UTF-8 Plain Text

Дата премьеры (мир): 24 сентября 2017



Релиз от:


General
Уникальный идентификатор : 229859063088431103245738531085751534415 (0xACED3EC94C91792AE182F82D61E1C34F)
Полное имя : The.Child.in.Time.2017.BDRip.1080p-ylnian.mkv
Формат : Matroska
Версия формата : Version 4
Размер файла : 9,39 Гбайт
Продолжительность : 1 ч. 29 м.
Общий поток : 15,0 Мбит/сек
Название фильма : The.Child.in.Time.2017.BDRip.1080p-ylnian
Дата кодирования : UTC 2019-02-03 05:34:57
Программа кодирования : mkvmerge v30.1.0 ('Forever And More') 64-bit
Библиотека кодирования : libebml v1.3.6 + libmatroska v1.4.9

Видео
Идентификатор : 1
Формат : AVC
Формат/Информация : Advanced Video Codec
Профиль формата : High@L4.1
Настройки формата : CABAC / 4 Ref Frames
Параметр CABAC формата : Да
Параметр RefFrames формата : 4 кадра
Идентификатор кодека : V_MPEG4/ISO/AVC
Продолжительность : 1 ч. 29 м.
Битрейт : 13,3 Мбит/сек
Ширина : 1920 пикселей
Высота : 1080 пикселей
Соотношение сторон : 16:9
Режим частоты кадров : Постоянный
Частота кадров : 25,000 кадров/сек
Цветовое пространство : YUV
Субдискретизация насыщенности : 4:2:0
Битовая глубина : 8 бит
Тип развёртки : Прогрессивная
Бит/(Пиксели*Кадры) : 0.256
Размер потока : 8,32 Гбайт (89%)
Заголовок : The.Child.in.Time.2017.BDRip.1080p-ylnian
Библиотека кодирования : x264 core 157 r2935 545de2f
Настройки программы : cabac=1 / ref=4 / deblock=1:-3:-3 / analyse=0x3:0x133 / me=umh / subme=11 / psy=1 / psy_rd=1.05:0.00 / mixed_ref=1 / me_range=64 / chroma_me=1 / trellis=2 / 8x8dct=1 / cqm=0 / deadzone=21,11 / fast_pskip=1 / chroma_qp_offset=-4 / threads=12 / lookahead_threads=2 / sliced_threads=0 / nr=0 / decimate=1 / interlaced=0 / bluray_compat=0 / constrained_intra=0 / bframes=9 / b_pyramid=2 / b_adapt=2 / b_bias=0 / direct=2 / weightb=1 / open_gop=0 / weightp=2 / keyint=250 / keyint_min=23 / scenecut=40 / intra_refresh=0 / rc_lookahead=250 / rc=crf / mbtree=0 / crf=16.5 / qcomp=0.80 / qpmin=0 / qpmax=69 / qpstep=4 / vbv_maxrate=50000 / vbv_bufsize=62500 / crf_max=0.0 / nal_hrd=none / filler=0 / ip_ratio=1.30 / pb_ratio=1.20 / aq=2:0.90
Язык : English
Default : Да
Forced : Да

Аудио #1
Идентификатор : 2
Формат : AC-3
Формат/Информация : Audio Coding 3
Коммерческое название : Dolby Digital
Идентификатор кодека : A_AC3
Продолжительность : 1 ч. 29 м.
Вид битрейта : Постоянный
Битрейт : 192 Кбит/сек
Каналы : 2 канала
Channel layout : L R
Частота : 48,0 КГц
Частота кадров : 31,250 кадров/сек (1536 SPF)
Битовая глубина : 16 бит
Метод сжатия : С потерями
Размер потока : 123 Мбайт (1%)
Заголовок : MVO (1 kanal)
Язык : Russian
Default : Да
Forced : Да

Аудио #2
Идентификатор : 3
Формат : DTS
Формат/Информация : Digital Theater Systems
Идентификатор кодека : A_DTS
Продолжительность : 1 ч. 29 м.
Вид битрейта : Постоянный
Битрейт : 1509 Кбит/сек
Каналы : 6 каналов
Channel layout : C L R Ls Rs LFE
Частота : 48,0 КГц
Частота кадров : 93,750 кадра/сек (512 SPF)
Битовая глубина : 24 бит
Метод сжатия : С потерями
Размер потока : 967 Мбайт (10%)
Язык : English
Default : Нет
Forced : Нет

Текст #1
Идентификатор : 4
Формат : UTF-8
Идентификатор кодека : S_TEXT/UTF8
Идентификатор кодека/Информация : UTF-8 Plain Text
Продолжительность : 1 ч. 28 м.
Битрейт : 72 бит/сек
ElementCount : 771
Размер потока : 46,9 Кбайт (0%)
Заголовок : 1 kanal
Язык : Russian
Default : Нет
Forced : Нет

Текст #2
Идентификатор : 5
Формат : UTF-8
Идентификатор кодека : S_TEXT/UTF8
Идентификатор кодека/Информация : UTF-8 Plain Text
Продолжительность : 1 ч. 27 м.
Битрейт : 84 бит/сек
ElementCount : 1093
Размер потока : 54,1 Кбайт (0%)
Заголовок : Landau76
Язык : Russian
Default : Нет
Forced : Нет

Текст #3
Идентификатор : 6
Формат : UTF-8
Идентификатор кодека : S_TEXT/UTF8
Идентификатор кодека/Информация : UTF-8 Plain Text
Продолжительность : 1 ч. 27 м.
Битрейт : 53 бит/сек
ElementCount : 1068
Размер потока : 34,4 Кбайт (0%)
Язык : English
Default : Нет
Forced : Нет

Текст #4
Идентификатор : 7
Формат : UTF-8
Идентификатор кодека : S_TEXT/UTF8
Идентификатор кодека/Информация : UTF-8 Plain Text
Продолжительность : 1 ч. 27 м.
Битрейт : 50 бит/сек
ElementCount : 1005
Размер потока : 32,2 Кбайт (0%)
Язык : German
Default : Нет
Forced : Нет

Текст #5
Идентификатор : 8
Формат : UTF-8
Идентификатор кодека : S_TEXT/UTF8
Идентификатор кодека/Информация : UTF-8 Plain Text
Продолжительность : 1 ч. 27 м.
Битрейт : 53 бит/сек
ElementCount : 1165
Размер потока : 34,2 Кбайт (0%)
Язык : Italian
Default : Нет
Forced : Нет

Текст #6
Идентификатор : 9
Формат : UTF-8
Идентификатор кодека : S_TEXT/UTF8
Идентификатор кодека/Информация : UTF-8 Plain Text
Продолжительность : 1 ч. 27 м.
Битрейт : 53 бит/сек
ElementCount : 845
Размер потока : 34,7 Кбайт (0%)
Язык : Dutch
Default : Нет
Forced : Нет

Текст #7
Идентификатор : 10
Формат : UTF-8
Идентификатор кодека : S_TEXT/UTF8
Идентификатор кодека/Информация : UTF-8 Plain Text
Продолжительность : 1 ч. 27 м.
Битрейт : 52 бит/сек
ElementCount : 1060
Размер потока : 33,9 Кбайт (0%)
Язык : French
Default : Нет
Forced : Нет

Текст #8
Идентификатор : 11
Формат : UTF-8
Идентификатор кодека : S_TEXT/UTF8
Идентификатор кодека/Информация : UTF-8 Plain Text
Продолжительность : 1 ч. 27 м.
Битрейт : 61 бит/сек
ElementCount : 1276
Размер потока : 39,7 Кбайт (0%)
Язык : Spanish
Default : Нет
Forced : Нет

Меню
00:00:00.000 : en:01
00:09:35.200 : en:02
00:21:49.440 : en:03
00:29:44.720 : en:04
00:39:48.560 : en:05
00:50:40.920 : en:06
01:03:13.840 : en:07
01:12:12.840 : en:08
01:23:02.120 : en:09




Вернуться к началу
 Профиль Отправить личное сообщение  
Ответить с цитатой  
  • Торрент
Автор: Rufus Хэш: ---
Добавлен: 04 фев 2019, 13:57 Приватный: Нет (DHT включён)
Статус: Проверен
Размер: 9.39 ГБ (10 077 104 565 байт)
Изменил:
---
Скачали: 0 (Раздающих: 100%)
Причина:
---
Здоровье: 100%
Сидеров: 34 Личеров: 11
Скорость раздачи: 0 байт/сек Скорость скачивания: 0 байт/сек
Последний сидер: 18 дней 18 часов 29 минут 14 секунд назад Последний личер: 18 дней 18 часов 29 минут 14 секунд назад
Для скачивания торрента необходимо зарегистрироваться или войти на трекер.
Показать сообщения за:  Поле сортировки  
Начать новую тему Ответить на тему  [ 1 сообщение ] 


Кто сейчас на конференции

Сейчас этот форум просматривают: нет зарегистрированных пользователей и гости: 1


Вы не можете начинать темы
Вы не можете отвечать на сообщения
Вы не можете редактировать свои сообщения
Вы не можете удалять свои сообщения
Вы не можете добавлять вложения

Найти:
Перейти:  
cron
Создано на основе phpBB® Forum Software © phpBB Group
ppkBB3cker v.2.5 © 2008-2019 @ PPK | Icon Theme by Everaldo.com Design Studio
Русская поддержка phpBB
Ресурс не предоставляет электронные версии произведений, а занимается лишь коллекционированием и каталогизацией ссылок, присылаемых и публикуемых на форуме нашими читателями. Если вы являетесь правообладателем какого-либо представленного материала и не желаете чтобы ссылка на него находилась в нашем каталоге, свяжитесь с нами и мы незамедлительно удалим её. Файлы для обмена на трекере предоставлены пользователями сайта, и администрация не несёт ответственности за их содержание. Просьба не заливать файлы, защищенные авторскими правами, а также файлы нелегального содержания!