Jinta.ru

Лучший софт трекер





Начать новую тему Ответить на тему  [ 1 сообщение ] 
Автор Сообщение
СообщениеДобавлено: 30 дек 2017, 01:44 
Не в сети
Администратор
Аватара пользователя
Раздал: 331.37 ГБ
Скачал: 47.49 ГБ
Ратио: 921.928


Зарегистрирован: 30 июл 2016, 22:43
Сообщения: 1146
Золотая коллекция белорусской песни.


#777

Информация о фильме
Название: Золотая коллекция белорусской песни / Залатая калекцыя беларускай песні. Большой тур по городам: Гродно, Молодечно, Минск
Год выхода: 2017
Страна: Республика Беларусь
Студия: СТВ-HD (Беларусь)
Продолжительность: 02:18:33 + 02:02:21 + 02:36:35
Перевод: Не требует
Жанр: Pop, Neo-folk, Folk

О фильме:
«Золотая коллекция белорусской песни» отправился в тур по стране. Сразу 7 выпусков популярного музыкального проекта Телеканала СТВ будут показаны в 2017! Если встречаться раз в году – уже добрая традиция нашего канала, то в этот раз размах иной. По просьбам зрителей «Золотая коллекция» становится настоящим передвижным фестивалем. Раньше местом прописки был Минск, в Год культуры - культурная столица Молодечно. И каждый раз белорусскую песню ждали: билеты было не достать уже за месяц! Телевизионные рейтинги подтверждали - белорусская коллекция на СТВ била все рекорды. В этом году такие знакомые и знаковые мелодии услышали и в Солигорске (18.04.2017), и в Бобруйске (07.06.2017), в Гродно (23.11.2017) и Гомеле (18.05.2017), Молодечно (15.11.2017), Полоцке (07.09.2017) – в общем, настоящий гастрольный тур по родной стране!
А уже 6 декабря 2017 года зрители смогли увидеть Большой концерт в Минске!


На сцене – коллективы, которых знают и любят не только в Беларуси, но и за ее пределами. Сябры, Неруш, Харошки, Анатолий Ярмоленко, Ядвига Поплавская, Эдуард Ханок и многие другие. Три десятка хитов в каждом концерте. Большинство из них в свое время становились песней года. Теперь снова в телеротации. Причем, в исполнении, как кумиров целых поколений, так и молодых популярных артистов! Многим мелодиям в проекте дали новую современную жизнь. Кстати, попасть в «Золотую коллекцию» даже песням заслуженных и народных мастеров эстрады не так уж и просто. Драгоценное собрание телеканала СТВ – результат длительного и тщательного отбора из сотни хитов.

На протяжении целого года в самых разных уголках страны зрителей ждут песни пронзительные, душевные, любимые, а самое главное НАШИ!




1) Маладзечна - лауреаты Нацианального фестиваля песни и поэзии "Маладзечна" и все участники
2) Бераг юнацтва - Ирина Егорова (нар. арт. Российской Федерации) и Владимир Провалинский (засл. арт. РБ)
3) Юрий Козиятко генеральный директор ЗАО «Столичное телевидение»
4) Усё на свеце выпадкова - Анатолий Ярмоленко (нар. арт. РБ)
5) Мая Беларусь - Виктория Алешко (засл. арт. РБ) и Анатолий Ярмоленко (нар. арт. РБ)
6) Жураўлі - Злата Ларченко и Анатоль Ярмоленко-младший
7) Мы будем вместе - Александр и Варвара Солодуха
8) Карусель - Александр Солодуха и группа "Элемент"
9) Дранікі - ансамбль "Гасцінец" минской гимназии №17
10) У маёй руцэ твая рука - Жанет и Евгений Долич
11) Попурри на темы песен композитора Олега Аверина - группа "Лялькі-Корпорейшн"
12) Танга спаткання - Елизавета Запека и Андрей Колосов
13) Ой ты, мята - Надежда Микулич (засл. арт. РБ) и Ольга Горничар
14) Зорка з нябёсаў - Анжелика Пушнова и Вячеслав Шарапов
15) Спявай мне, дзяўчынка - Леонид Борткевич (засл. арт. РБ) и Андрей Еронин
16) Мы яшчэ сустрэнемся - Валентина и Александра Груздевы
17) Легенда пра Нарач - Валерий Скорожонок и ансамбль "Пліса"
18) Гора не бяда - Ирина Дорофеева (засл. арт. РБ) и группа"Красотки"
19) Ручаёк - ансамбль "Чараўніцы"
20) Госцікі - Венера и Александр Сухарев
21) Не говори нет - Ерман и группа "Явар"
22) Да сустрэчы, родны дом - Екатерина Шумская и группа "PROвокация"
23) Лодачка - Ирина Романовская и Владимир Карачевский
24) Дударыкі - Наталья Тамело (засл. арт. РБ) и Юлия Можиловская
25) Не хадзіце, мае хлопчыкі - ансамбль "Лас-Вегас"
26) Каханне выбірае нас - арт-группа "Беларусы"
27) Вернись - Нина Жуковская и Николая Скориков (нар. арт. РБ)
28) Попурри на темы белорусских песен - ансамбль "Верасы"
29) Рушнікі - Лариса Грибалёва (засл. арт. РБ) и Саша Немо
30) Мая сталіца - ансамбль "Маракасы"
31) Медавуха - Жанна Пивоварова и Вадим Косенко
32) Наваражым - цыганское шоу "Кустурица"
33) Пажаданне - Марина Василевская и Игорь Задорожный

Ведущие: Ольга Бурлакова, Виктория Алешко (засл. арт. РБ), Саша Немо и Олег Степанюк


Запись потока *.ts с наземного цифрового телеканала "СТВ-HD" (Беларусь).

Благодарность: за помощь с недостающим материалом Bartimeyse. Огромное спасибо!



Файл
Кодек: AVC (H264)
Качество: HDTV 1080i от AND03AND
Видео: MPEG4 Video (H264) 1920x1080 25fps, ~5 985 Kbps
Звук: AAC 48000Hz stereo ~127kbps
Код:
General
ID                             : 1 (0x1)
Complete name                  : F:Золотая коллекция белорусской песни. Гродно, Молодечно, Минск (2017) FullHDЗолотая коллекция белорусской песни. Молодечно (15.11.2017).ts
Format                         : MPEG-TS
File size                      : 6.22 GiB
Duration                       : 2h 18mn
Overall bit rate mode          : Variable
Overall bit rate               : 6 431 Kbps

Video
ID                             : 401 (0x191)
Menu ID                        : 4 (0x4)
Format                         : AVC
Format/Info                    : Advanced Video Codec
Format profile                 : High@L4.0
Format settings, CABAC         : Yes
Format settings, ReFrames      : 4 frames
Codec ID                       : 27
Duration                       : 2h 18mn
Bit rate                       : 5 986 Kbps
Width                          : 1 920 pixels
Height                         : 1 080 pixels
Display aspect ratio           : 16:9
Frame rate                     : 25.000 fps
Standard                       : Component
Color space                    : YUV
Chroma subsampling             : 4:2:0
Bit depth                      : 8 bits
Scan type                      : MBAFF
Bits/(Pixel*Frame)             : 0.115
Stream size                    : 5.79 GiB (93%)
Color primaries                : BT.709
Transfer characteristics       : BT.709
Matrix coefficients            : BT.709

Audio
ID                             : 402 (0x192)
Menu ID                        : 4 (0x4)
Format                         : AAC
Format/Info                    : Advanced Audio Codec
Format version                 : Version 2
Format profile                 : LC
Muxing mode                    : ADTS
Codec ID                       : 15
Duration                       : 2h 18mn
Bit rate mode                  : Constant
Bit rate                       : 126 Kbps
Channel(s)                     : 2 channels
Channel positions              : Front: L R
Sampling rate                  : 48.0 KHz
Compression mode               : Lossy
Stream size                    : 124 MiB (2%)


Код:
General
ID                             : 1 (0x1)
Complete name                  : F:Золотая коллекция белорусской песни. Гродно, Молодечно, Минск (2017) FullHDЗолотая коллекция белорусской песни. Гродно (23.11.2017).ts
Format                         : MPEG-TS
File size                      : 5.49 GiB
Duration                       : 2h 2mn
Overall bit rate mode          : Variable
Overall bit rate               : 6 429 Kbps

Video
ID                             : 401 (0x191)
Menu ID                        : 4 (0x4)
Format                         : AVC
Format/Info                    : Advanced Video Codec
Format profile                 : High@L4.0
Format settings, CABAC         : Yes
Format settings, ReFrames      : 4 frames
Codec ID                       : 27
Duration                       : 2h 2mn
Bit rate                       : 5 984 Kbps
Width                          : 1 920 pixels
Height                         : 1 080 pixels
Display aspect ratio           : 16:9
Frame rate                     : 25.000 fps
Standard                       : Component
Color space                    : YUV
Chroma subsampling             : 4:2:0
Bit depth                      : 8 bits
Scan type                      : MBAFF
Bits/(Pixel*Frame)             : 0.115
Stream size                    : 5.12 GiB (93%)
Color primaries                : BT.709
Transfer characteristics       : BT.709
Matrix coefficients            : BT.709

Audio
ID                             : 402 (0x192)
Menu ID                        : 4 (0x4)
Format                         : AAC
Format/Info                    : Advanced Audio Codec
Format version                 : Version 2
Format profile                 : LC
Muxing mode                    : ADTS
Codec ID                       : 15
Duration                       : 2h 2mn
Bit rate mode                  : Constant
Bit rate                       : 126 Kbps
Channel(s)                     : 2 channels
Channel positions              : Front: L R
Sampling rate                  : 48.0 KHz
Compression mode               : Lossy
Stream size                    : 110 MiB (2%)


Код:
General
ID                             : 1 (0x1)
Complete name                  : F:Золотая коллекция белорусской песни. Гродно, Молодечно, Минск (2017) FullHDЗолотая коллекция белорусской песни. Минск (06.12.2017).ts
Format                         : MPEG-TS
File size                      : 7.04 GiB
Duration                       : 2h 36mn
Overall bit rate mode          : Variable
Overall bit rate               : 6 433 Kbps

Video
ID                             : 401 (0x191)
Menu ID                        : 4 (0x4)
Format                         : AVC
Format/Info                    : Advanced Video Codec
Format profile                 : High@L4.0
Format settings, CABAC         : Yes
Format settings, ReFrames      : 4 frames
Codec ID                       : 27
Duration                       : 2h 36mn
Bit rate                       : 5 988 Kbps
Width                          : 1 920 pixels
Height                         : 1 080 pixels
Display aspect ratio           : 16:9
Frame rate                     : 25.000 fps
Standard                       : Component
Color space                    : YUV
Chroma subsampling             : 4:2:0
Bit depth                      : 8 bits
Scan type                      : MBAFF
Bits/(Pixel*Frame)             : 0.116
Stream size                    : 6.55 GiB (93%)
Color primaries                : BT.709
Transfer characteristics       : BT.709
Matrix coefficients            : BT.709

Audio
ID                             : 402 (0x192)
Menu ID                        : 4 (0x4)
Format                         : AAC
Format/Info                    : Advanced Audio Codec
Format version                 : Version 2
Format profile                 : LC
Muxing mode                    : ADTS
Codec ID                       : 15
Duration                       : 2h 36mn
Bit rate mode                  : Constant
Bit rate                       : 126 Kbps
Channel(s)                     : 2 channels
Channel positions              : Front: L R
Sampling rate                  : 48.0 KHz
Compression mode               : Lossy
Stream size                    : 141 MiB (2%)




Вернуться к началу
 Профиль  
Ответить с цитатой  
  • Торрент
Автор: Jinta Хэш: ---
Добавлен: 30 дек 2017, 01:44 Приватный: Нет (DHT включён)
Статус: Проверен
Размер: 18.75 ГБ (20 137 428 804 байт)
Изменил:
---
Скачали: 0 (Раздающих: 100%)
Причина:
---
Здоровье: 12%
Сидеров: 1 Личеров: 8
Скорость раздачи: 0 байт/сек Скорость скачивания: 0 байт/сек
Последний сидер: 4 месяца 5 дней 11 часов 17 минут 9 секунд назад Последний личер: 4 месяца 5 дней 11 часов 17 минут 9 секунд назад
Для скачивания торрента необходимо зарегистрироваться или войти на трекер.
Показать сообщения за:  Поле сортировки  
Начать новую тему Ответить на тему  [ 1 сообщение ] 


Кто сейчас на конференции

Сейчас этот форум просматривают: нет зарегистрированных пользователей и гости: 1


Вы не можете начинать темы
Вы не можете отвечать на сообщения
Вы не можете редактировать свои сообщения
Вы не можете удалять свои сообщения
Вы не можете добавлять вложения

Найти:
Перейти: