Jinta.ru

Лучший софт трекер





Начать новую тему Ответить на тему  [ 1 сообщение ] 
Автор Сообщение
СообщениеДобавлено: 10 май 2018, 15:27 
Секс в каменном веке / Sex in the Stone Age


#777

Год выпуска: 2011
Страна: США, Lone Wolf Documentary Group, National Geographic Television
Продолжительность: 00:44:56
Перевод:Одноголосый закадровый, профессиональный (АРК ТВ)
Жанр:Документальный, научно-популярный, фауна, флора, антропология, палеонтология

Режиссер: Джед Раушер

Описание:
Фрагмент кости мизинца и большой коренной зуб, имеющий размеры вдвое большие, чем такой же зуб современного человека - вот и все, что досталось ученым от неизвестного ранее вида человека, жившего в тоже время, что и наши предки. Более того, наши предки скрещивались с ним! Его гены - часть наших, но мы об этом никогда не подозревали... Как же выглядели эти люди? И как они вписываются в концепцию эволюции нашего вида?


Качество: HDTVRip 1080p
Формат:MPEG-TS
Видео кодек: AVC/H.264
Аудио кодек: AC3
Видео: AVC/H.264 (1920x1080), 6500 Кбит/с, 25.000 кадра/сек
Аудио#1: MP2, 2 ch, 192 Kbps | Русский (текст читает Денис Некрасов)
Аудио#2: MP2, 2 ch, 192 Kbps | Английский

      

Общее
Идентификатор : 1 (0x1)
Полное имя : F:\КИНО\Sex.in.the.Stone.Age.(2011).HDTV.1080i.Rus.Eng_HDCLUB.ts
Формат : MPEG-TS
Размер файла : 1,74 Гбайт
Продолжительность : 44 м. 56 с.
Режим общего битрейта : Переменный
Общий поток : 5536 Кбит/сек
Максимальный общий битрейт : 35,5 Мбит/сек

Видео
Идентификатор : 4113 (0x1011)
Идентификатор меню : 1 (0x1)
Формат : AVC
Формат/Информация : Advanced Video Codec
Профиль формата : High@L4
Настройки формата : CABAC / 3 Ref Frames
Параметр CABAC формата : Да
Параметр RefFrames формата : 3 кадра
Параметр GOP формата : M=4, N=28
Идентификатор кодека : 27
Продолжительность : 44 м. 56 с.
Вид битрейта : Переменный
Битрейт : 4875 Кбит/сек
Максимальный битрейт : 40,0 Мбит/сек
Ширина : 1920 пикселей
Высота : 1080 пикселей
Соотношение сторон : 16:9
Частота кадров : 25,000 кадров/сек
Стандарт вещания : Component
Цветовое пространство : YUV
Субдискретизация насыщенности : 4:2:0
Битовая глубина : 8 бит
Тип развёртки : Чересстрочная
Метод сохранения типа развёртки : Раздельные поля
Порядок развёртки : Верхнее поле первое
Бит/(Пиксели*Кадры) : 0.094
Размер потока : 1,53 Гбайт (88%)
Цветовой диапазон : Limited
Основные цвета : BT.601 PAL
Характеристики трансфера : BT.470 System B/G
Коэффициенты матрицы : BT.470 System B/G

Аудио #1
Идентификатор : 4352 (0x1100)
Идентификатор меню : 1 (0x1)
Формат : AC-3
Формат/Информация : Audio Coding 3
Идентификатор кодека : 129
Продолжительность : 44 м. 56 с.
Вид битрейта : Постоянный
Битрейт : 192 Кбит/сек
Каналы : 2 канала
Расположение каналов : Front: L R
Частота : 48,0 КГц
Частота кадров : 31,250 кадров/сек (1536 SPF)
Битовая глубина : 16 бит
Метод сжатия : С потерями
Размер потока : 61,7 Мбайт (3%)
Язык : Russian
ServiceKind/String : Complete Main

Аудио #2
Идентификатор : 4353 (0x1101)
Идентификатор меню : 1 (0x1)
Формат : AC-3
Формат/Информация : Audio Coding 3
Идентификатор кодека : 129
Продолжительность : 44 м. 56 с.
Вид битрейта : Постоянный
Битрейт : 192 Кбит/сек
Каналы : 2 канала
Расположение каналов : Front: L R
Частота : 48,0 КГц
Частота кадров : 31,250 кадров/сек (1536 SPF)
Битовая глубина : 16 бит
Метод сжатия : С потерями
Размер потока : 61,7 Мбайт (3%)
Язык : English
ServiceKind/String : Complete Main


Вернуться к началу
  
Ответить с цитатой  
  • Торрент
Автор: Saturn Хэш: ---
Добавлен: 10 май 2018, 15:27 Приватный: Нет (DHT включён)
Статус: Проверен
Размер: 1.74 ГБ (1 865 918 424 байт)
Изменил:
---
Скачали: 0 (Раздающих: 100%)
Причина:
---
Здоровье: 100%
Сидеров: 5 Личеров: 0
Скорость раздачи: 0 байт/сек Скорость скачивания: 0 байт/сек
Последний сидер: 11 дней 23 часа 58 минут 31 секунду назад Последний личер: Нет
Для скачивания торрента необходимо зарегистрироваться или войти на трекер.
Показать сообщения за:  Поле сортировки  
Начать новую тему Ответить на тему  [ 1 сообщение ] 


Кто сейчас на конференции

Сейчас этот форум просматривают: нет зарегистрированных пользователей и гости: 1


Вы не можете начинать темы
Вы не можете отвечать на сообщения
Вы не можете редактировать свои сообщения
Вы не можете удалять свои сообщения
Вы не можете добавлять вложения

Найти:
Перейти: