Jinta.ru

Полезный софт трекер





Начать новую тему Ответить на тему  [ 1 сообщение ] 
Автор Сообщение
СообщениеДобавлено: 27 окт 2018, 20:37 
Не в сети
Администратор
Аватара пользователя
Раздал: 582.67 ГБ
Скачал: 296.51 ГБ
Ратио: 1015.105


Зарегистрирован: 30 июл 2016, 22:43
Сообщения: 1826
Чёрные небеса
L'autre monde
Black Heaven


#777

Год выпуска: 2010
Страна: Франция, Бельгия
Продолжительность: 01:45:16
Перевод: Профессиональный (многоголосый закадровый)
Первый канал

Субтитры: нет
Оригинальная аудиодорожка: нет
Жанр: драма

Режиссер: Жиль Маршан / Gilles Marchand

В ролях:
Грегуар Лепренс-Ренге, Луиз Бургуан, Мельвиль Пупо, Полин Этьен, Пьере Нинэ, Али Мархьяр, Сванн Арло, Патрик Декам

Описание:
Гаспар и Марион — молодая парочка, отдыхают и весело проводят время до тех пор, пока случайно найденный сотовый телефон не побуждает их найти владельца. Из SMS-переписки они узнают, что хозяйка мобильника в указанное время будет в одной из местных часовен города. Подстегиваемые любопытством, молодые люди поначалу просто наблюдают за незнакомкой и её спутником, пока те не намереваются покончить жизнь самоубийством. Спасти удается лишь девушку. Из её слов Гаспар узнает о некой он-лайн игре под названием «Black Hole», что и побудила барышню совершить столь опрометчивый поступок

Доп. информация:
О переводе: Перевод на трекере появляется впервые
Качество: цифровой эфир (Первый канал)
Запись и синхронизация: mister55555

Сэмпл: минута59сек

Качество видео: BDRip
Формат видео: AVI
Видео: XviD, 720x304, 2,35:1, 23,976 кадра/сек, 1807 Кбит/сек
Аудио: AC-3, 48,0 КГц, 192 Кбит/сек, 2 канала (многоголосый Первый канал)
Общее
Полное имя : Чёрные небеса.2010.BDRip.1канал.avi
Формат : AVI
Формат/Информация : Audio Video Interleave
Размер файла : 1,48 Гбайт
Продолжительность : 1 ч. 45 м.
Общий поток : 2008 Кбит/сек
Дата записи : 03.02.2015
Программа кодирования : VirtualDubModRus 1.5.10.2 (build 2542/release)
Библиотека кодирования : VirtualDubMod build 2542/release
Правообладатель : mister55555
Примечание : для rutracker.org
Видео
Идентификатор : 0
Формат : MPEG-4 Visual
Профиль формата : Advanced Simple@L5
Параметр BVOP формата : 1
Параметр QPel формата : Нет
Параметр GMC формата : Без точки перехода
Параметр матрицы формата : Выборочная
Идентификатор кодека : XVID
Идентификатор кодека/Подсказка : XviD
Продолжительность : 1 ч. 45 м.
Битрейт : 1807 Кбит/сек
Ширина : 720 пикселей
Высота : 304 пикселя
Соотношение сторон : 2,35:1
Частота кадров : 23,976 кадра/сек
Цветовое пространство : YUV
Субдискретизация насыщенности : 4:2:0
Битовая глубина : 8 бит
Тип развёртки : Прогрессивная
Метод сжатия : С потерями
Бит/(Пиксели*Кадры) : 0.344
Размер потока : 1,33 Гбайт (90%)
Библиотека кодирования : XviD 73
Аудио
Идентификатор : 1
Формат : AC-3
Формат/Информация : Audio Coding 3
Расширение режима : CM (complete main)
Параметр Endianness формата : Big
Идентификатор кодека : 2000
Продолжительность : 1 ч. 45 м.
Вид битрейта : Постоянный
Битрейт : 192 Кбит/сек
Каналы : 2 канала
Расположение каналов : Front: L R
Частота : 48,0 КГц
Битовая глубина : 16 бит
Метод сжатия : С потерями
Размер потока : 145 Мбайт (10%)
Выравнивание : Разделение по промежуткам
Продолжительность промежутка : 42 мс. (1,00 видеокадр)
Время предзагрузки промежутка : 500 мс.
Заголовок : многоголосый Первый канал



Вернуться к началу
 Профиль Отправить личное сообщение  
Ответить с цитатой  
  • Торрент
Автор: Jinta Хэш: ---
Добавлен: 27 окт 2018, 20:37 Приватный: Нет (DHT включён)
Статус: Проверен
Размер: 1.48 ГБ (1 585 668 096 байт)
Изменил:
---
Скачали: 0 (Раздающих: 100%)
Причина:
---
Здоровье: 100%
Сидеров: 1 Личеров: 0
Скорость раздачи: 0 байт/сек Скорость скачивания: 0 байт/сек
Последний сидер: 9 дней 5 часов 46 минут 5 секунд назад Последний личер: Нет
Для скачивания торрента необходимо зарегистрироваться или войти на трекер.
Показать сообщения за:  Поле сортировки  
Начать новую тему Ответить на тему  [ 1 сообщение ] 


Кто сейчас на конференции

Сейчас этот форум просматривают: нет зарегистрированных пользователей и гости: 1


Вы не можете начинать темы
Вы не можете отвечать на сообщения
Вы не можете редактировать свои сообщения
Вы не можете удалять свои сообщения
Вы не можете добавлять вложения

Найти:
Перейти:  
cron
Создано на основе phpBB® Forum Software © phpBB Group
ppkBB3cker v.2.5 © 2008-2018 @ PPK | Icon Theme by Everaldo.com Design Studio
Русская поддержка phpBB
Ресурс не предоставляет электронные версии произведений, а занимается лишь коллекционированием и каталогизацией ссылок, присылаемых и публикуемых на форуме нашими читателями. Если вы являетесь правообладателем какого-либо представленного материала и не желаете чтобы ссылка на него находилась в нашем каталоге, свяжитесь с нами и мы незамедлительно удалим её. Файлы для обмена на трекере предоставлены пользователями сайта, и администрация не несёт ответственности за их содержание. Просьба не заливать файлы, защищенные авторскими правами, а также файлы нелегального содержания!