Jinta.ru

Полезный софт трекер





Начать новую тему Ответить на тему  [ 1 сообщение ] 
Автор Сообщение
СообщениеДобавлено: 06 фев 2019, 16:32 
Не в сети
Администратор
Аватара пользователя
Раздал: 1.14 ТБ
Скачал: 490.42 ГБ
Ратио: 1026.221


Зарегистрирован: 30 июл 2016, 22:43
Сообщения: 2174
Суспирия / Suspiria


#777

Информация о фильме
Название: Суспирия
Оригинальное название: Suspiria
Год выхода: 2018
Страна: Италия, США
Перевод: Дублированный | iTunes
Продолжительность: 02:32:10
Жанр: Ужасы, фэнтези, триллер, детектив

Режиссер: Лука Гуаданьино

В ролях:
Дакота Джонсон, Тильда Суинтон, Дорис Хик, Малгоша Бела, Хлоя Грейс Морец, Ангела Винклер, Ванда Каприоло, Алек Век, Джессика Батю, Елена Фокина и др.

О фильме:
Молодая американка приезжает в Берлин, чтобы присоединиться к знаменитой танцевальной труппе. Однако в стенах студии девушка внезапно обнаруживает нечто зловещее и сверхъестественное. Вскоре она понимает, что станет следующей жертвой, если не успеет раскрыть тайну проклятия, которое окутало легендарную танцевальную академию.



Файл
Формат: AVI
Качество: BDRip | Suspiria.2018.1080p.BluRay.REMUX.AVC.DTS-HD.MA.TrueHD.7.1.Atmos-FGT
Видео: Xvid 73, 704x384, ~1168 kbps, 24,000 fps
Звук: русский, AC3, 2.0 ch, 48 kHz, 192 kbps | iTunes
Субтитры: английские (хардсаб на немецкую речь)

General
Полное имя : E:TorrentSuspiria2018BDRip.avi
Формат : AVI
Формат/Информация : Audio Video Interleave
Профиль формата : OpenDML
Размер файла : 1.46 GiB
Продолжительность : 2 h 32 min
Общий поток : 1 372 kb/s
Программа кодирования : XviD4PSP 6.0 / 54.27.101

Video
Идентификатор : 0
Формат : MPEG-4 Visual
Профиль формата : Advanced Simple@L5
Настройки формата : BVOP2 / Custom Matrix
Параметр BVOP формата : 2
Параметр QPel формата : No
Параметр GMC формата : No warppoints
Параметр матрицы формата : Custom
Идентификатор кодека : XVID
Идентификатор кодека/Подсказка : XviD
Продолжительность : 2 h 32 min
Битрейт : 1 168 kb/s
Ширина : 704 pixels
Высота : 384 pixels
Соотношение сторон : 1.85:1
Частота кадров : 24.000 FPS
Цветовое пространство : YUV
Субдискретизация насыщенности : 4:2:0
Битовая глубина : 8 bits
Тип развёртки : Progressive
Метод сжатия : Lossy
Бит/(Пиксели*Кадры) : 0.180
Размер потока : 1.24 GiB (85%)
Библиотека кодирования : XviD 73

Audio
Идентификатор : 1
Формат : AC-3
Формат/Информация : Audio Coding 3
Идентификатор кодека : 2000
Продолжительность : 2 h 32 min
Вид битрейта : Constant
Битрейт : 192 kb/s
Каналы : 2 channels
Расположение каналов : Front: L R
Частота : 48.0 kHz
Частота кадров : 31.250 FPS (1536 SPF)
Битовая глубина : 16 bits
Метод сжатия : Lossy
Размер потока : 209 MiB (14%)
Выравнивание : Aligned on interleaves
Продолжительность промежутка : 32 ms (0.77 video frame)




Релиз от:


Вернуться к началу
 Профиль Отправить личное сообщение  
Ответить с цитатой  
  • Торрент
Автор: Jinta Хэш: ---
Добавлен: 06 фев 2019, 16:32 Приватный: Нет (DHT включён)
Статус: Проверен
Размер: 1.46 ГБ (1 565 603 282 байт)
Изменил:
---
Скачали: 0 (Раздающих: 0%)
Причина:
---
Здоровье: 0%
Сидеров: 0 Личеров: 0
Скорость раздачи: 0 байт/сек Скорость скачивания: 0 байт/сек
Последний сидер: Нет Последний личер: Нет
Для скачивания торрента необходимо зарегистрироваться или войти на трекер.
Показать сообщения за:  Поле сортировки  
Начать новую тему Ответить на тему  [ 1 сообщение ] 


Кто сейчас на конференции

Сейчас этот форум просматривают: нет зарегистрированных пользователей и гости: 3


Вы не можете начинать темы
Вы не можете отвечать на сообщения
Вы не можете редактировать свои сообщения
Вы не можете удалять свои сообщения
Вы не можете добавлять вложения

Найти:
Перейти:  
cron
Создано на основе phpBB® Forum Software © phpBB Group
ppkBB3cker v.2.5 © 2008-2019 @ PPK | Icon Theme by Everaldo.com Design Studio
Русская поддержка phpBB
Ресурс не предоставляет электронные версии произведений, а занимается лишь коллекционированием и каталогизацией ссылок, присылаемых и публикуемых на форуме нашими читателями. Если вы являетесь правообладателем какого-либо представленного материала и не желаете чтобы ссылка на него находилась в нашем каталоге, свяжитесь с нами и мы незамедлительно удалим её. Файлы для обмена на трекере предоставлены пользователями сайта, и администрация не несёт ответственности за их содержание. Просьба не заливать файлы, защищенные авторскими правами, а также файлы нелегального содержания!