Jinta.ru

Лучший софт трекер





Начать новую тему Ответить на тему  [ 1 сообщение ] 
Автор Сообщение
СообщениеДобавлено: 08 май 2018, 21:50 
Не в сети
Администратор
Аватара пользователя
Раздал: 332.43 ГБ
Скачал: 49.99 ГБ
Ратио: 955.889


Зарегистрирован: 30 июл 2016, 22:43
Сообщения: 1391
Мокрая женщина на ветру / Kaze ni nureta onna / Wet woman in the wind


#777

Год выпуска: 2016
Производство: Япония [Django Film, Nikkatsu]
Продолжительность: 01:18:04
Жанр: эротика, мелодрама, комедия

Режиссер: Акихико Сиота
В ролях: Такахиро Като, Юки Мамия, Тасуку Нагаока, Рюсин Тэи

Сюжет фильма:
Бывший драматург уезжает из города, чтобы пожить тихой и спокойной жизнью. Но не тут-то было — он сталкивается с взбалмошной женщиной, которая тут же проявляет к писателю недвусмысленный интерес.

Мировая премьера: 5 августа 2016



Качество видео: DVDRip-AVC
Формат: MKV
Видео: MPEG-4 AVC, 1024х556 (1.85:1), 23.976 fps, 2773 kbps
Аудио: русский, любительский одноголосый закадровый (Олег Воротилин по переводу Zinov'ev), AC3 2.0, 48 kHz, 192 kbps
Код:
Формат                                   : Matroska
Версия формата                           : Version 4 / Version 2
Размер файла                             : 1,62 Гбайт
Продолжительность                        : 1 ч. 18 м.
Общий поток                              : 2967 Кбит/сек
Дата кодирования                         : UTC 2018-03-13 18:33:19
Программа кодирования                    : mkvmerge v8.0.0 ('Til The Day That I Die') 64bit
Библиотека кодирования                   : libebml v1.3.1 + libmatroska v1.4.2

Видео
Идентификатор                            : 1
Формат                                   : AVC
Формат/Информация                        : Advanced Video Codec
Профиль формата                          : High@L4
Параметр CABAC формата                   : Да
Параметр ReFrames формата                : 8 кадров
Идентификатор кодека                     : V_MPEG4/ISO/AVC
Продолжительность                        : 1 ч. 18 м.
Битрейт                                  : 2773 Кбит/сек
Ширина                                   : 1024 пикселя
Высота                                   : 556 пикселей
Соотношение сторон                       : 1,85:1
Соотношение сторон в оригинале           : 1,85:1
Режим частоты кадров                     : Постоянный
Частота кадров                           : 23,976 (24000/1001) кадра/сек
Цветовое пространство                    : YUV
Субдискретизация насыщенности            : 4:2:0
Битовая глубина                          : 8 бит
Тип развёртки                            : Прогрессивная
Бит/(Пиксели*Кадры)                      : 0.203
Размер потока                            : 1,51 Гбайт (93%)
Библиотека кодирования                   : x264 core 142 r2479 dd79a61
Настройки программы                      : cabac=1 / ref=8 / deblock=1:-2:-2 / analyse=0x3:0x133 / me=umh / subme=11 / psy=1 / psy_rd=1.00:0.00 / mixed_ref=1 / me_range=32 / chroma_me=1 / trellis=2 / 8x8dct=1 / cqm=0 / deadzone=21,11 / fast_pskip=0 / chroma_qp_offset=-2 / threads=12 / lookahead_threads=2 / sliced_threads=0 / nr=0 / decimate=1 / interlaced=0 / bluray_compat=0 / constrained_intra=0 / bframes=9 / b_pyramid=2 / b_adapt=2 / b_bias=0 / direct=3 / weightb=1 / open_gop=0 / weightp=2 / keyint=240 / keyint_min=24 / scenecut=40 / intra_refresh=0 / rc_lookahead=60 / rc=crf / mbtree=1 / crf=17.0 / qcomp=0.60 / qpmin=0 / qpmax=69 / qpstep=4 / vbv_maxrate=25000 / vbv_bufsize=31250 / crf_max=0.0 / nal_hrd=none / filler=0 / ip_ratio=1.40 / aq=2:1.00
Default                                  : Да
Forced                                   : Нет
Цветовой диапазон                        : Limited
Основные цвета                           : BT.709
Характеристики трансфера                 : BT.709
Коэффициенты матрицы                     : BT.709

Аудио
Идентификатор                            : 2
Формат                                   : AC-3
Формат/Информация                        : Audio Coding 3
Расширение режима                        : CM (complete main)
Параметр Endianness формата              : Big
Идентификатор кодека                     : A_AC3
Продолжительность                        : 1 ч. 18 м.
Вид битрейта                             : Постоянный
Битрейт                                  : 192 Кбит/сек
Каналы                                   : 2 канала
Расположение каналов                     : Front: L R
Частота                                  : 48,0 КГц
Частота кадров                           : 31,250 кадров/сек (1536 spf)
Битовая глубина                          : 16 бит
Метод сжатия                             : С потерями
Задержка видео                           : -83 мс.
Размер потока                            : 107 Мбайт (6%)
Default                                  : Да
Forced                                   : Нет

Меню
00:00:00.000                             : :00:00:00.000
00:14:19.442                             : :00:14:19.317
00:29:27.099                             : :00:29:26.974
00:37:29.581                             : :00:37:29.456
00:53:29.665                             : :00:53:29.581
01:12:51.117                             : :01:12:50.992



Для увеличения картинки щелкните мышкой по превью


Вернуться к началу
 Профиль Отправить личное сообщение  
Ответить с цитатой  
  • Торрент
Автор: Jinta Хэш: ---
Добавлен: 08 май 2018, 21:50 Приватный: Нет (DHT включён)
Статус: Проверен
Размер: 1.62 ГБ (1 737 199 536 байт)
Изменил:
---
Скачали: 1 (Раздающих: 100%)
Причина:
---
Здоровье: 100%
Сидеров: 1 Личеров: 0
Скорость раздачи: 0 байт/сек Скорость скачивания: 0 байт/сек
Последний сидер: 1 месяц 24 дня 20 часов 4 минуты 2 секунды назад Последний личер: Нет
Для скачивания торрента необходимо зарегистрироваться или войти на трекер.
Показать сообщения за:  Поле сортировки  
Начать новую тему Ответить на тему  [ 1 сообщение ] 

   Похожие торренты   Автор   Ответы   Просмотры   Последнее сообщение 
В этой теме нет новых непрочитанных сообщений. Чудо-женщина / Wonder Woman (Патти Дженкинс) [2017, Фэнтези, фантастика, боевик, приключения, WEB-DL 1080р | iTunes

в форуме Зарубежные фильмы, Размер: 5.23 ГБ, Здоровье: 0%

Titan

0
0|0

59
0

30 авг 2017, 09:42

Titan Перейти к последнему сообщению

В этой теме нет новых непрочитанных сообщений. Афера / The Affair (Дэнни Тейлор / Danny Taylor) [1995, драма, мелодрама, эротика, DVDRip | P2]

в форуме XXX / Эротика зарубежная, Размер: 815.09 МБ, Здоровье: 100%

Titan

0
6|4

184
19

17 фев 2018, 11:44

Titan Перейти к последнему сообщению

В этой теме нет новых непрочитанных сообщений. Свингеры / Swingers (Стефан Бренникмейер / Штефан Бреннинкмайер) [2002, драма, мелодрама, эротика, DVDRip | L1]

в форуме XXX / Эротика зарубежная, Размер: 1.45 ГБ, Здоровье: 100%

Jinta

0
36|12

130
3

28 янв 2018, 21:57

Jinta Перейти к последнему сообщению

В этой теме нет новых непрочитанных сообщений. Грязная, как ангел / Sale comme un ange (Катрин Брейя) [1991, драма, мелодрама, эротика, DVDRip | A]

в форуме XXX / Эротика зарубежная, Размер: 1.46 ГБ, Здоровье: 100%

Titan

0
2|0

18
3

12 июн 2018, 22:25

Titan Перейти к последнему сообщению

В этой теме нет новых непрочитанных сообщений. Королевская шлюха / La putain du roi (Аксель Корти) [1990, драма, мелодрама, история, эротика, DVDRip | Full version | P2]

в форуме XXX / Эротика зарубежная, Размер: 2.13 ГБ, Здоровье: 100%

Titan

0
1|0

21
2

03 июн 2018, 23:55

Titan Перейти к последнему сообщению

В этой теме нет новых непрочитанных сообщений. Побег с планеты удовольствий / Escape from Pleasure Planet (Терренс Райкер / Terrance Ryker) [2016, фантастика, фэнтези, боевик, мелодрама, комедия, эротика, WEB-DLRip | L]

в форуме XXX / Эротика зарубежная, Размер: 1.37 ГБ, Здоровье: 0%

Jinta

0
0|0

41
3

17 янв 2018, 10:19

Jinta Перейти к последнему сообщению

В этой теме нет новых непрочитанных сообщений. Побег с планеты удовольствий / Escape from Pleasure Planet (Терренс Райкер / Terrance Ryker )[2016, фантастика, фэнтези, боевик, мелодрама, комедия, эротика, WEB-DL 720p | L

в форуме XXX / Эротика зарубежная, Размер: 2.81 ГБ, Здоровье: 100%

Rufus

0
55|8

88
689

17 янв 2018, 16:00

Rufus Перейти к последнему сообщению



Кто сейчас на конференции

Сейчас этот форум просматривают: нет зарегистрированных пользователей и гости: 1


Вы не можете начинать темы
Вы не можете отвечать на сообщения
Вы не можете редактировать свои сообщения
Вы не можете удалять свои сообщения
Вы не можете добавлять вложения

Найти:
Перейти: