Jinta.ru

Полезный софт трекер





Начать новую тему Ответить на тему  [ 1 сообщение ] 
Автор Сообщение
СообщениеДобавлено: 20 июл 2018, 23:51 
Не в сети
Администратор
Аватара пользователя
Раздал: 719.34 ГБ
Скачал: 437.25 ГБ
Ратио: 1016.945


Зарегистрирован: 30 июл 2016, 22:43
Сообщения: 1896
Подглядывающий / L'uomo che guarda


#777

О фильме:
Название: Подглядывающий
Оригинальное название: L'uomo che guarda
Год выхода: 1994
Страна: Италия
Студия: Erre Cinematograsica S.r.l., Rodeo Drive
Продолжительность: 01:43:05
Перевод: Профессиональный (двухголосый закадровый)
Жанр: Драма, эротика

Режиссер: Тинто Брасс

В ролях:
Катарина Василисса, Франческо Казале, Кристина Гаравалья, Рафаэлла Оффидани, Антонио Салинес, Элеонора Де Грасси, Габри Креа, Мартина Брошар, Франко Бранчароли, Эрика Савастани, Паоло Мурано, Тед Русофф, Мария Ла Роза, Лулу, Маттео

О фильме:
Это фильм о том, что дарит нам высшее наслаждение и боль. Он может помочь понять, как уменьшить боль, а не понравится он разве что ханже и живому мертвецу. Стремясь избавиться от страданий из-за разрыва с любимой женой. Эдуардо твердит стихи Бодлера: «Будь проклят тот кретин, кто впервые смешал воедино любовь и честь». Он уверен: то, что общество выводит за рамки дозволенного, является важнейшей частью человеческой жизни.



Внимание!!! это совсем другой фильм а не "Записки Тинто Брасса: Подсматривающий / Voyeur" (1993) BDRip



General
Complete name : C:UsersUserDesktopL'uomo.che.guarda.1994.BDRip.DVO_by_LBS.avi
Format : AVI
Format/Info : Audio Video Interleave
File size : 1.46 GiB
Duration : 1h 43mn
Overall bit rate : 2 026 Kbps
Director : Last Boy Scout
Writing application : VirtualDubMod 1.5.10.3 || (build 2550/release)
Copyright : rutracker.org 07.05.2016
Comment : BDRip DVO

Video
ID : 0
Format : MPEG-4 Visual
Format profile : Advanced Simple@L5
Format settings, BVOP : 1
Format settings, QPel : No
Format settings, GMC : No warppoints
Format settings, Matrix : Custom
Codec ID : XVID
Codec ID/Hint : XviD
Duration : 1h 43mn
Bit rate : 1 633 Kbps
Width : 720 pixels
Height : 400 pixels
Display aspect ratio : 16:9
Frame rate : 23.976 fps
Color space : YUV
Chroma subsampling : 4:2:0
Bit depth : 8 bits
Scan type : Progressive
Compression mode : Lossy
Bits/(Pixel*Frame) : 0.236
Stream size : 1.18 GiB (81%)
Writing library : XviD 73

Audio
ID : 1
Format : AC-3
Format/Info : Audio Coding 3
Mode extension : CM (complete main)
Format settings, Endianness : Big
Codec ID : 2000
Duration : 1h 43mn
Bit rate mode : Constant
Bit rate : 384 Kbps
Channel(s) : 6 channels
Channel positions : Front: L C R, Side: L R, LFE
Sampling rate : 48.0 KHz
Bit depth : 16 bits
Compression mode : Lossy
Stream size : 283 MiB (19%)
Alignment : Split accross interleaves
Interleave, duration : 42 ms (1.00 video frame)
Interleave, preload duration : 500 ms


Файл
Кодек: XviD
Качество: BDRip Исходник THE_VOYEUR_1994_BD-REMUX_HDCLUB
Видео: 720x400 (1.80:1), 23.976 fps, XviD build 73 ~1633 kbps avg, 0.24 bit/pixel
Звук:
Аудио 1: 48 kHz, AC3 Dolby Digital, 3/2 (L,C,R,l,r) + LFE ch, ~384 kbps Rus


Вернуться к началу
 Профиль Отправить личное сообщение  
Ответить с цитатой  
  • Торрент
Автор: Jinta Хэш: ---
Добавлен: 20 июл 2018, 23:51 Приватный: Нет (DHT включён)
Статус: Проверен
Размер: 1.46 ГБ (1 566 310 400 байт)
Изменил:
---
Скачали: 0 (Раздающих: 0%)
Причина:
---
Здоровье: 0%
Сидеров: 0 Личеров: 0
Скорость раздачи: 0 байт/сек Скорость скачивания: 0 байт/сек
Последний сидер: Нет Последний личер: Нет
Для скачивания торрента необходимо зарегистрироваться или войти на трекер.
Показать сообщения за:  Поле сортировки  
Начать новую тему Ответить на тему  [ 1 сообщение ] 


Кто сейчас на конференции

Сейчас этот форум просматривают: нет зарегистрированных пользователей и гости: 1


Вы не можете начинать темы
Вы не можете отвечать на сообщения
Вы не можете редактировать свои сообщения
Вы не можете удалять свои сообщения
Вы не можете добавлять вложения

Найти:
Перейти:  
Создано на основе phpBB® Forum Software © phpBB Group
ppkBB3cker v.2.5 © 2008-2018 @ PPK | Icon Theme by Everaldo.com Design Studio
Русская поддержка phpBB
Ресурс не предоставляет электронные версии произведений, а занимается лишь коллекционированием и каталогизацией ссылок, присылаемых и публикуемых на форуме нашими читателями. Если вы являетесь правообладателем какого-либо представленного материала и не желаете чтобы ссылка на него находилась в нашем каталоге, свяжитесь с нами и мы незамедлительно удалим её. Файлы для обмена на трекере предоставлены пользователями сайта, и администрация не несёт ответственности за их содержание. Просьба не заливать файлы, защищенные авторскими правами, а также файлы нелегального содержания!