Jinta.ru

Полезный софт трекер





Начать новую тему Ответить на тему  [ 1 сообщение ] 
Автор Сообщение
СообщениеДобавлено: 04 дек 2018, 22:07 
В сети
Администратор
Аватара пользователя
Раздал: 704.29 ГБ
Скачал: 433.13 ГБ
Ратио: 1016.296


Зарегистрирован: 30 июл 2016, 22:43
Сообщения: 1890
Плоды страсти / Les fruits de la passion


#777

Информация о фильме
Название: Плоды страсти
Оригинальное название: Les fruits de la passion
Год выхода: 1981
Страна: Франция, Япония
Студия: Argos Films, Jinriki Hikoki Sha
Продолжительность: 01:19:23
Перевод: Авторский (одноголосый, закадровый), Любительский (одноголосый, закадровый)
Жанр: драма, сюрреализм, эротика

Режиссер: Сюдзи Тэраяма / Shuji Terayama

В ролях:
Изабель Илье, Клаус Кински, Ариель Домбаль, Питер, Кэйко Нийтака, Саёко Ямагути, Хитоми Такахаси, Миюки Оно, Юка Камэбути, Кэнити Накамура

]О фильме:
Гонконг 1920. Молодая британская девушка попадает в азиатский бордель. Подвергаясь сексуальному насилию, фетишизму со стороны клиентов, она обнаруживает много новых чувственных желаний в мире запретного секса...

Фильм основан на романе Доминик Ори "История О", который рассказывает о женщине, по желанию своего возлюбленного превращенной во всеобщую рабыню в замке Руаси. Японский режиссер значительно переработал сюжет и сместил акценты.









Файл
Кодек: H.264
Качество: DVDRip-AVC (DVD5 PAL 16:9)
Видео: 2450 Кбит/сек; 25,000 кадров/сек; 0.253
Звук:
1: HE-AAC / LC; 48,0 КГц / 24,0 КГц; 64,0 Кбит/сек; 2 канала - A (Антон Алексеев)
2: HE-AAC / LC; 48,0 КГц / 24,0 КГц; 64,0 Кбит/сек; 2 канала - L1 (Олег Воротилин по субтитрам DUNA)
3: HE-AAC / LC; 48,0 КГц / 24,0 КГц; 64,0 Кбит/сек; 2 канала - Eng
Субтитры: Да (DUNA)
Главы: Нет


Общее
Уникальный идентификатор : 185122155378625291411242238609012814318 (0x8B453AF1185C091193B981526F83F1EE)
Полное имя : D:Фильмы_ИзбранноеПлоды страсти (1981) DVDRip A, L1.mkv
Формат : Matroska
Версия формата : Version 4 / Version 2
Размер файла : 1,47 Гбайт
Продолжительность : 1 ч. 19 м.
Общий поток : 2645 Кбит/сек
Дата кодирования : UTC 2018-12-02 13:11:22
Программа кодирования : mkvmerge v9.8.0 ('Kuglblids') 64bit
Библиотека кодирования : libebml v1.3.4 + libmatroska v1.4.5

Видео
Идентификатор : 1
Формат : AVC
Формат/Информация : Advanced Video Codec
Профиль формата : High@L4.1
Настройки формата : CABAC / 16 Ref Frames
Параметр CABAC формата : Да
Параметр RefFrames формата : 16 кадров
Идентификатор кодека : V_MPEG4/ISO/AVC
Продолжительность : 1 ч. 19 м.
Битрейт : 2450 Кбит/сек
Ширина : 676 пикселей
Высота : 572 пикселя
Соотношение сторон : 5:3
Соотношение сторон в оригинале : 5:3
Режим частоты кадров : Постоянный
Частота кадров : 25,000 кадров/сек
Цветовое пространство : YUV
Субдискретизация насыщенности : 4:2:0
Битовая глубина : 8 бит
Тип развёртки : Прогрессивная
Бит/(Пиксели*Кадры) : 0.253
Размер потока : 1,36 Гбайт (93%)
Библиотека кодирования : x264 core 157 r2935 545de2f
Настройки программы : cabac=1 / ref=16 / deblock=1:-1:-1 / analyse=0x3:0x133 / me=umh / subme=10 / psy=1 / psy_rd=1.00:0.15 / mixed_ref=1 / me_range=24 / chroma_me=1 / trellis=2 / 8x8dct=1 / cqm=0 / deadzone=21,11 / fast_pskip=1 / chroma_qp_offset=-3 / threads=6 / lookahead_threads=1 / sliced_threads=0 / nr=0 / decimate=1 / interlaced=0 / bluray_compat=0 / constrained_intra=0 / bframes=8 / b_pyramid=2 / b_adapt=2 / b_bias=0 / direct=3 / weightb=1 / open_gop=0 / weightp=2 / keyint=250 / keyint_min=25 / scenecut=40 / intra_refresh=0 / rc_lookahead=60 / rc=2pass / mbtree=0 / bitrate=2450 / ratetol=1.0 / qcomp=0.60 / qpmin=0 / qpmax=69 / qpstep=4 / cplxblur=20.0 / qblur=0.5 / vbv_maxrate=50000 / vbv_bufsize=62500 / nal_hrd=none / filler=0 / ip_ratio=1.40 / pb_ratio=1.30 / aq=1:1.00
Default : Да
Forced : Нет

Аудио #1
Идентификатор : 2
Формат : AAC
Формат/Информация : Advanced Audio Codec
Профиль формата : HE-AAC / LC
Настройки формата : Explicit
Идентификатор кодека : A_AAC-2
Продолжительность : 1 ч. 19 м.
Битрейт : 64,0 Кбит/сек
Каналы : 2 канала
Расположение каналов : Front: L R
Частота : 48,0 КГц / 24,0 КГц
Частота кадров : 23,438 кадра/сек (1024 SPF)
Метод сжатия : С потерями
Задержка видео : 31 мс.
Размер потока : 36,3 Мбайт (2%)
Заголовок : A (А.Алексеев)
Язык : Russian
Default : Да
Forced : Нет

Аудио #2
Идентификатор : 3
Формат : AAC
Формат/Информация : Advanced Audio Codec
Профиль формата : HE-AAC / LC
Настройки формата : Explicit
Идентификатор кодека : A_AAC-2
Продолжительность : 1 ч. 19 м.
Битрейт : 64,0 Кбит/сек
Каналы : 2 канала
Расположение каналов : Front: L R
Частота : 48,0 КГц / 24,0 КГц
Частота кадров : 23,438 кадра/сек (1024 SPF)
Метод сжатия : С потерями
Задержка видео : 31 мс.
Размер потока : 36,3 Мбайт (2%)
Заголовок : L1 (О.Воротилин)
Язык : Russian
Default : Нет
Forced : Нет

Аудио #3
Идентификатор : 4
Формат : AAC
Формат/Информация : Advanced Audio Codec
Профиль формата : HE-AAC / LC
Настройки формата : Explicit
Идентификатор кодека : A_AAC-2
Продолжительность : 1 ч. 19 м.
Битрейт : 64,0 Кбит/сек
Каналы : 2 канала
Расположение каналов : Front: L R
Частота : 48,0 КГц / 24,0 КГц
Частота кадров : 23,438 кадра/сек (1024 SPF)
Метод сжатия : С потерями
Задержка видео : 31 мс.
Размер потока : 36,3 Мбайт (2%)
Заголовок : Original
Язык : English
Default : Нет
Forced : Нет

Текст
Идентификатор : 5
Формат : UTF-8
Идентификатор кодека : S_TEXT/UTF8
Идентификатор кодека/Информация : UTF-8 Plain Text
Продолжительность : 1 ч. 16 м.
Битрейт : 49 бит/сек
ElementCount : 534
Размер потока : 27,5 Кбайт (0%)
Заголовок : DUNA
Язык : Russian
Default : Нет
Forced : Нет


Вернуться к началу
 Профиль Отправить личное сообщение  
Ответить с цитатой  
  • Торрент
Автор: Jinta Хэш: ---
Добавлен: 04 дек 2018, 22:07 Приватный: Нет (DHT включён)
Статус: Проверен
Размер: 1.47 ГБ (1 574 925 895 байт)
Изменил:
---
Скачали: 0 (Раздающих: 0%)
Причина:
---
Здоровье: 0%
Сидеров: 0 Личеров: 0
Скорость раздачи: 0 байт/сек Скорость скачивания: 0 байт/сек
Последний сидер: Нет Последний личер: Нет
Для скачивания торрента необходимо зарегистрироваться или войти на трекер.
Показать сообщения за:  Поле сортировки  
Начать новую тему Ответить на тему  [ 1 сообщение ] 


Кто сейчас на конференции

Сейчас этот форум просматривают: нет зарегистрированных пользователей и гости: 1


Вы не можете начинать темы
Вы не можете отвечать на сообщения
Вы не можете редактировать свои сообщения
Вы не можете удалять свои сообщения
Вы не можете добавлять вложения

Найти:
Перейти:  
Создано на основе phpBB® Forum Software © phpBB Group
ppkBB3cker v.2.5 © 2008-2018 @ PPK | Icon Theme by Everaldo.com Design Studio
Русская поддержка phpBB
Ресурс не предоставляет электронные версии произведений, а занимается лишь коллекционированием и каталогизацией ссылок, присылаемых и публикуемых на форуме нашими читателями. Если вы являетесь правообладателем какого-либо представленного материала и не желаете чтобы ссылка на него находилась в нашем каталоге, свяжитесь с нами и мы незамедлительно удалим её. Файлы для обмена на трекере предоставлены пользователями сайта, и администрация не несёт ответственности за их содержание. Просьба не заливать файлы, защищенные авторскими правами, а также файлы нелегального содержания!