Jinta.ru

Полезный софт трекер





Начать новую тему Ответить на тему  [ 1 сообщение ] 
Автор Сообщение
СообщениеДобавлено: 25 мар 2020, 23:15 
Не в сети
Администратор
Аватара пользователя
Раздал: 7.48 ТБ
Скачал: 884.37 ГБ
Ратио: 1143.737


Зарегистрирован: 07 окт 2016, 01:02
Сообщения: 5408
Лабиринт
[01-04 из 04]


#777

Информация о фильме
Оригинальное название: Лабиринт
Год выхода: 2020
Страна: Украина
Студия: ООО "АРТ ТЕРРИТОРИЯ"
Продолжительность: 4 х 00:45:00
Перевод: Не требуется
Жанр: Мелодрама

Режиссер: Антон Гойда

В ролях:
Александра Булычёва, Тарас Кузьмин, Прохор Дубравин, Елизавета Козлова, Алексей Сморигин, Валерия Березовская, Александр Заднепровский, Ксения Николаева, Даниил Каменский, Елена Узлюк, Людмила Загорская, Дарья Легейда, Руслан Коваль, Ирина Бондаренко, Галина Корнеева, Нина Набока, Сергей Кучера, Максим Девизоров, Кирилл Горолюк, Полина Фролова (II), Александр Третьяченко

О фильме:
Жизнь Алины Тихоновой – идеальная картинка. Успешный дизайнер, она замужем за известным адвокатом, растит двух прекрасных детей и даже дружит со свекровью. Алина, чье детство было далеко не безоблачным, твердо вознамерилась сделать все, чтобы ее собственные дети росли в идеальной семье. Она готова закрыть глаза на то, что ее муж, регулярно дарящий шикарные букеты, тиран и деспот, дочка отстранена и связана с плохой компанией, сын молча страдает, выполняя нелепые прихоти отца, а свекровь ее не уважает. Но Алина уверена – у всех свои недостатки, и она будет терпеть побои мужа, чтобы не повторить судьбу матери, которую она скрывает от собственных детей, потому что та не вписывается в идеальную картинку. Все заканчивается в тот день, когда муж поднимает руку на сына, чуть не убивает саму Алину, а дочь уходит из дома...


Файл
Кодек: XviD
Качество: WEB-DLRip
Видео: XviD, ~ 1588 Кбит/с, 720x400, 25 кадр/с
Звук: AC3, 2 ch, 192 Кбит/с





Автор рипа Nicodem
Релиз от Files-x без рекламы
General
Complete name: C:01.Лабиринт.(2020).WEB-DLRip.by.Nicodem.Files-x.avi
Format: AVI
Format/Info: Audio Video Interleave
File size: 580 MiB
Duration: 45mn 19s
Overall bit rate: 1 790 Kbps
Writing application: VirtualDubMod 1.5.10.3 | http://www.virtualdub-fr.org || (build 2550/release)
Writing library: VirtualDubMod build 2550/release

Video
ID: 0
Format: MPEG-4 Visual
Format profile: Advanced Simple@L5
Format settings, BVOP: 1
Format settings, QPel: No
Format settings, GMC: No warppoints
Format settings, Matrix: Custom
Codec ID: XVID
Codec ID/Hint: XviD
Duration: 45mn 19s
Bit rate: 1 588 Kbps
Width: 720 pixels
Height: 400 pixels
Display aspect ratio: 16:9
Frame rate: 25.000 fps
Color space: YUV
Chroma subsampling: 4:2:0
Bit depth: 8 bits
Scan type: Progressive
Compression mode: Lossy
Bits/(Pixel*Frame): 0.221
Stream size: 515 MiB (89%)
Writing library: XviD 73

Audio
ID: 1
Format: AC-3
Format/Info: Audio Coding 3
Mode extension: CM (complete main)
Codec ID: 2000
Duration: 45mn 19s
Bit rate mode: Constant
Bit rate: 192 Kbps
Channel(s): 2 channels
Channel positions: Front: L R
Sampling rate: 48.0 KHz
Bit depth: 16 bits
Compression mode: Lossy
Stream size: 62.2 MiB (11%)
Alignment: Split accross interleaves
Interleave, duration: 40 ms (1.00 video frame)
Раздача ведётся путём добавления новых серий, при каждом добавлении создаётся новый торрент. Чтобы начать докачку новой серии, пользователям необходимо сделать следующее:

- Остановить скачивание.
- Удалить старый торрент у себя из клиента (старые серии удалять не надо).
- Скачать новый торрент и запустить его у себя в клиенте вместо старого, при этом указать клиенту путь в старую папку куда и должно происходить скачивание новых серий.

Ваш клиент при этом должен произвести хеширование (проверку) старой папки (если не производит сам - помогите ему сделать это), и будет докачивать только те серии которых у вас ещё нет. Старые серии при этом не удаляются, а продолжают раздаваться!
Если вы уже удалили старые серии, то предотвратить повторную закачку старых серий можно, отжав галочку в соответствующих местах при запуске нового торрента. По возможности, желательно не удалять старые серии как можно дольше, чтобы релизер не столько продолжал раздавать старые серии, а смог сконцентрироваться на новых.


Вернуться к началу
 Профиль Отправить личное сообщение  
Ответить с цитатой  
  • Торрент
Автор: Titan Хэш: ---
Добавлен: 25 мар 2020, 23:15 Приватный: Нет (DHT включён)
Статус: Проверен
Размер: 2.27 ГБ (2 433 458 176 байт)
Изменил:
---
Скачали: 493 (Раздающих: 36%)
Причина:
---
Здоровье: 100%
Сидеров: 176 Личеров: 63
Скорость раздачи: 0 байт/сек Скорость скачивания: 0 байт/сек
Последний сидер: 5 дней 11 часов 20 минут 45 секунд назад Последний личер: 5 дней 11 часов 20 минут 45 секунд назад
Для скачивания торрента необходимо зарегистрироваться или войти на трекер.
Показать сообщения за:  Поле сортировки  
Начать новую тему Ответить на тему  [ 1 сообщение ] 


Кто сейчас на конференции

Сейчас этот форум просматривают: нет зарегистрированных пользователей и гости: 2


Вы не можете начинать темы
Вы не можете отвечать на сообщения
Вы не можете редактировать свои сообщения
Вы не можете удалять свои сообщения
Вы не можете добавлять вложения

Найти:
Перейти:  
Создано на основе phpBB® Forum Software © phpBB Group
ppkBB3cker v.2.5 © 2008-2019 @ PPK | Icon Theme by Everaldo.com Design Studio
Русская поддержка phpBB
Ресурс не предоставляет электронные версии произведений, а занимается лишь коллекционированием и каталогизацией ссылок, присылаемых и публикуемых на форуме нашими читателями. Если вы являетесь правообладателем какого-либо представленного материала и не желаете чтобы ссылка на него находилась в нашем каталоге, свяжитесь с нами и мы незамедлительно удалим её. Файлы для обмена на трекере предоставлены пользователями сайта, и администрация не несёт ответственности за их содержание. Просьба не заливать файлы, защищенные авторскими правами, а также файлы нелегального содержания!