Jinta.ru

Полезный софт трекер





Начать новую тему Ответить на тему  [ 1 сообщение ] 
Автор Сообщение
СообщениеДобавлено: 25 сен 2020, 20:20 
Не в сети
Релизер
Аватара пользователя
Раздал: 139.83 ГБ
Скачал: 82.88 МБ
Ратио: None.


Зарегистрирован: 22 май 2018, 22:33
Сообщения: 646
Бессонница


#777

Год выпуска: 2014
Производство: DixiMedia
Продолжительность: ~ 00:44:00
Субтитры: Нет
Жанр: Детектив

Режиссёр: Андрей Мармонтов

В ролях:
Юлия Юрченко, Александр Константинов, Анна Антонова, Мачей Штур, Эдуард Флёров, Владислав Павлов, Максим Щёголев, Александр Сетейкин, Алексей Матошин, Вероника Вернадская, Юлия Галкина, Андрей Курилов, Виктория Фишер, Дарья Повереннова, Виктор Проскурин, Алексей Фаддеев, Дмитрий Файнштейн, Дмитрий Астрахан, Елена Панджариди, Елена Коренева, Георгий Лежава, Дмитрий Астапенко, Михаил Хмуров, Юлия Шиферштейн.

Описание:
Без сна человеческий организм не может существовать бесконечно. В одном из подпольных казино, больше похожем на тайный клуб, играют только самые богатые, самые влиятельные и… самые пресыщенные. Те, кто готов ставить целые состояния на красное, если это красное – кровь. Для них и был создан новый тотализатор, основанный на игре «Бессонница», который проводится всего раз в год. Клиенты казино, делая свои ставки, рискуют миллионами, но игроки рискуют гораздо большим. Из 10 игроков последний не заснувший и оставшийся в живых – победитель. И нельзя сказать, что участие в игре – дело полностью добровольное. Так, один из участников попадает в игру, нарушив закон. Задержавшие его полицейские дают ему право выбора: надолго оказаться в тюрьме или рискнуть и получить свободу.

Сэмпл: https://cloud.mail.ru/public/dee10148f500/%D0%91%D0%B5%D1%81%D1%81%D0%BE%D0%BD%D0...%D0%BF%D0%BB.avi

Доп. информация: Реклама отсутствует!

Качество: SATRip
Формат: AVI
Видео кодек: XviD
Аудио кодек: MP3
Видео: 704x368, 25 fps, XviD, ~1600 kbps, 0.211 bit/pixel
Аудио: 48 kHz, MPEG Layer 3, 2 ch, 192 kbps
Общее
Полное имя : R:\Сериалы 2014\Бессонница (2014)\Бессонница.(01.seriya).2014.XviD.SATRip.by.simka.avi
Формат : AVI
Формат/Информация : Audio Video Interleave
Размер файла : 551 Мбайт
Продолжительность : 44 м.
Общий поток : 1744 Кбит/сек
Программа кодирования : VirtualDubMod 1.5.10.3 | http://www.virtualdub-fr.org || (build 2550/release)
Библиотека кодирования : VirtualDubMod build 2550/release
Видео
Идентификатор : 0
Формат : MPEG-4 Visual
Профиль формата : Advanced Simple@L5
Параметр BVOP формата : 1
Параметр QPel формата : Нет
Параметр GMC формата : Без точки перехода
Параметр матрицы формата : Default (MPEG)
Идентификатор кодека : XVID
Идентификатор кодека/Подсказка : XviD
Продолжительность : 44 м.
Битрейт : 1543 Кбит/сек
Ширина : 704 пикселя
Высота : 368 пикселей
Соотношение сторон : 1,913
Частота кадров : 25,000 кадров/сек
Цветовое пространство : YUV
Субдискретизация насыщенности : 4:2:0
Битовая глубина : 8 бит
Тип развёртки : Прогрессивная
Метод сжатия : С потерями
Бит/(Пиксели*Кадры) : 0.238
Размер потока : 487 Мбайт (88%)
Библиотека кодирования : XviD 1.2.1 (UTC 2008-12-04)
Аудио
Идентификатор : 1
Формат : MPEG Audio
Версия формата : Version 1
Профиль формата : Layer 3
Режим : Joint stereo
Идентификатор кодека : 55
Идентификатор кодека/Подсказка : MP3
Продолжительность : 44 м.
Вид битрейта : Постоянный
Битрейт : 192 Кбит/сек
Каналы : 2 канала
Частота : 48,0 КГц
Метод сжатия : С потерями
Размер потока : 60,6 Мбайт (11%)
Выравнивание : Соединение по промежуткам
Продолжительность промежутка : 40 мс. (1,00 видеокадр)
Время предзагрузки промежутка : 504 мс.
Библиотека кодирования : LAME3.99r
Настройки программы : -m j -V 4 -q 2 -lowpass 18.6 -b 192


Релиз группы::


Вернуться к началу
 Профиль Отправить личное сообщение  
Ответить с цитатой  
  • Торрент
Автор: Saturn Хэш: ---
Добавлен: 25 сен 2020, 20:20 Приватный: Нет (DHT включён)
Статус: Проверен
Размер: 8.62 ГБ (9 253 380 096 байт)
Изменил:
---
Скачали: 0 (Раздающих: 100%)
Причина:
---
Здоровье: 100%
Сидеров: 14 Личеров: 5
Скорость раздачи: 0 байт/сек Скорость скачивания: 0 байт/сек
Последний сидер: 6 месяцев 49 минут 35 секунд назад Последний личер: 6 месяцев 49 минут 35 секунд назад
Для скачивания торрента необходимо зарегистрироваться или войти на трекер.
Показать сообщения за:  Поле сортировки  
Начать новую тему Ответить на тему  [ 1 сообщение ] 


Кто сейчас на конференции

Сейчас этот форум просматривают: нет зарегистрированных пользователей и гости: 1


Вы не можете начинать темы
Вы не можете отвечать на сообщения
Вы не можете редактировать свои сообщения
Вы не можете удалять свои сообщения
Вы не можете добавлять вложения

Найти:
Перейти:  
cron
Создано на основе phpBB® Forum Software © phpBB Group
ppkBB3cker v.2.5 © 2008-2021 @ PPK | Icon Theme by Everaldo.com Design Studio
Русская поддержка phpBB
[ Time : 0.047s | 15 Queries | GZIP : On ]
Ресурс не предоставляет электронные версии произведений, а занимается лишь коллекционированием и каталогизацией ссылок, присылаемых и публикуемых на форуме нашими читателями. Если вы являетесь правообладателем какого-либо представленного материала и не желаете чтобы ссылка на него находилась в нашем каталоге, свяжитесь с нами и мы незамедлительно удалим её. Файлы для обмена на трекере предоставлены пользователями сайта, и администрация не несёт ответственности за их содержание. Просьба не заливать файлы, защищенные авторскими правами, а также файлы нелегального содержания!