Jinta.ru

Полезный софт трекер





Начать новую тему Ответить на тему  [ 1 сообщение ] 
Автор Сообщение
СообщениеДобавлено: 25 сен 2020, 20:20 
Не в сети
Релизер
Аватара пользователя
Раздал: 139.83 ГБ
Скачал: 82.88 МБ
Ратио: None.


Зарегистрирован: 22 май 2018, 22:33
Сообщения: 646
#777#7

Год выпуска: 2011-2012
Производство: НТВ-КИНО
Жанр: Криминальный боевик

Режиссёр: Станислав Мареев


В ролях:
Алексей Комашко, Владислав Дёмин, Андрей Лавров, Сергей Векслер, Карина Андоленко, Анна Капалева, Александр Никольский, Ангелина Коршунова, Евгений Кулаков, Наталья Голованова, Сергей Загребнев, Валерий Кудашкин, Рубен Симонов, Иннокентий Тарабара, Валерий Новиков, Елизавета Лотова
Продолжительность: ~ 00:45:00

Описание:
Весной 1993 года бывший офицер–десантник Александр Якушев, после сокращения из вооруженных сил приезжает в Ставрополь. После ряда безуспешных попыток устроиться на работу в коммерческие структуры, он наталкивается на старого друга который приглашает его вступить в ряды сотрудников – специального отряда быстрого реагирования (СОБР). Костяк составляют бывшие офицеры вооруженных сил.
События фильма происходят на фоне ежедневной работы СОБРа – тренировки, обучение, оперативные выезды на операции по освобождению заложников, задержанию различного статуса преступников и т.п. Разворачивается картина непростых взаимоотношений в среде бывших сотрудников правоохранительных органов и офицеров армейских спецподразделений.
Параллельно, в соседней Чечне, в создавшемся на то время криминальном анклаве, не подчиняющемся Москве, разворачивается история с торговлей оружием. В аферу вовлечены могущественные силы из банковского сектора страны, ряд будущих олигархов и криминальная верхушка Ичкерии.
Во время одной из командировок, отделение СОБРа выполняет задачу по охране и обеспечению деятельности следственной группы из Москвы, которая ведет расследование. И на одной из операций главным героям фильма удается перехватить оружие которое пытались продать чеченским боевикам.
С этого момента герои вступают в череду не самых приятных приключений и препетий.
Но отношения, возникшие внутри боевой группы, уже не были чисто служебными. Офицеры-спецназовцы стали частью одной боевой машины, одного рыцарского ордена, имя которому - СОБР.


Размер: 16 серий уместятся на 2хDVD5

Качество: SATRip
Формат: AVI
Видео кодек: XviD
Аудио кодек: MP3
Видео: 704x384 (1.83:1), 25 fps, XviD build 64 ~1590 kbps avg, 0.23 bit/pixel
Аудио: 48 kHz, MPEG Layer 3, 2 ch, ~128.00 kbps avg

Внимание! Раздача ведётся путём добавления новых серий; при каждом добавлении создётся новый торрент. Чтобы начать докачку новой серии, пользователям необходимо сделать следующее:
(1) остановить скачивание,
(2) удалить старый торрент у себя из клиента (старые серии удалять не надо),
(3) скачать новый торрент и запустить его у себя в клиенте вместо старого, при этом указать клиенту путь в старую папку куда и должно происходить скачивание новых серий.
Ваш клиент при этом должен произвести хеширование (проверку) старой папки (если не производит сам - помогите ему сделать это), и будет докачивать только те серии которых у вас ещё нет. Старые серии при этом не удаляются, а продолжают раздаваться!
Eсли вы уже удалили старые серии, то предотвратить повторную закачку старых серий можно, отжав галочку в соответсвующих местах при запуске нового торрента. По возможности, желательно не удалять старые серии как можно дольше чтобы релизёр не столько продолжал раздавать старые серии, а смог сконцентрироваться на новых
Общее
Полное имя : D:\Торренты\СОБР_SatRip_by_Drek\СОБР_01_SatRip_by_Drek.avi
Формат : AVI
Формат/Информация : Audio Video Interleave
Размер файла : 554 Мбайт
Продолжительность : 45 м.
Общий поток : 1687 Кбит/сек
Программа кодирования : VirtualDubMod 1.5.10.3 | http://www.virtualdub-fr.org || (build 2550/release)
Библиотека кодирования : VirtualDubMod build 2550/release
Видео
Идентификатор : 0
Формат : MPEG-4 Visual
Профиль формата : Advanced Simple@L5
Параметр BVOP формата : 2
Параметр QPel формата : Нет
Параметр GMC формата : Без точки перехода
Параметр матрицы формата : Выборочная
Идентификатор кодека : XVID
Идентификатор кодека/Подсказка : XviD
Продолжительность : 45 м.
Битрейт : 1549 Кбит/сек
Ширина : 704 пикселя
Высота : 384 пикселя
Соотношение сторон : 16:9
Частота кадров : 25,000 кадров/сек
Цветовое пространство : YUV
Субдискретизация насыщенности : 4:2:0
Битовая глубина : 8 бит
Тип развёртки : Прогрессивная
Метод сжатия : С потерями
Бит/(Пиксели*Кадры) : 0.229
Размер потока : 509 Мбайт (92%)
Библиотека кодирования : XviD 64
Аудио
Идентификатор : 1
Формат : MPEG Audio
Версия формата : Version 1
Профиль формата : Layer 3
Режим : Joint stereo
Расширение режима : MS Stereo
Идентификатор кодека : 55
Идентификатор кодека/Подсказка : MP3
Продолжительность : 45 м.
Вид битрейта : Постоянный
Битрейт : 128 Кбит/сек
Каналы : 2 канала
Частота : 48,0 КГц
Метод сжатия : С потерями
Размер потока : 42,0 Мбайт (8%)
Выравнивание : Соединение по промежуткам
Продолжительность промежутка : 40 мс. (1,00 видеокадр)
Время предзагрузки промежутка : 504 мс.
Библиотека кодирования : LAME3.99
Настройки программы : -m j -V 4 -q 2 -lowpass 17 -b 128


За DVB спасибо volklive!!Релиз:


Вернуться к началу
 Профиль Отправить личное сообщение  
Ответить с цитатой  
  • Торрент
Автор: Saturn Хэш: ---
Добавлен: 25 сен 2020, 20:20 Приватный: Нет (DHT включён)
Статус: Проверен
Размер: 8.65 ГБ (9 286 160 384 байт)
Изменил:
---
Скачали: 0 (Раздающих: 100%)
Причина:
---
Здоровье: 100%
Сидеров: 5 Личеров: 2
Скорость раздачи: 0 байт/сек Скорость скачивания: 0 байт/сек
Последний сидер: 6 месяцев 23 минуты 20 секунд назад Последний личер: 6 месяцев 23 минуты 20 секунд назад
Для скачивания торрента необходимо зарегистрироваться или войти на трекер.
Показать сообщения за:  Поле сортировки  
Начать новую тему Ответить на тему  [ 1 сообщение ] 


Кто сейчас на конференции

Сейчас этот форум просматривают: нет зарегистрированных пользователей и гости: 1


Вы не можете начинать темы
Вы не можете отвечать на сообщения
Вы не можете редактировать свои сообщения
Вы не можете удалять свои сообщения
Вы не можете добавлять вложения

Найти:
Перейти:  
cron
Создано на основе phpBB® Forum Software © phpBB Group
ppkBB3cker v.2.5 © 2008-2021 @ PPK | Icon Theme by Everaldo.com Design Studio
Русская поддержка phpBB
[ Time : 0.050s | 14 Queries | GZIP : On ]
Ресурс не предоставляет электронные версии произведений, а занимается лишь коллекционированием и каталогизацией ссылок, присылаемых и публикуемых на форуме нашими читателями. Если вы являетесь правообладателем какого-либо представленного материала и не желаете чтобы ссылка на него находилась в нашем каталоге, свяжитесь с нами и мы незамедлительно удалим её. Файлы для обмена на трекере предоставлены пользователями сайта, и администрация не несёт ответственности за их содержание. Просьба не заливать файлы, защищенные авторскими правами, а также файлы нелегального содержания!