Jinta.ru

Полезный софт трекер





Начать новую тему Ответить на тему  [ 1 сообщение ] 
Автор Сообщение
СообщениеДобавлено: 25 сен 2020, 20:21 
Не в сети
Релизер
Аватара пользователя
Раздал: 139.83 ГБ
Скачал: 82.88 МБ
Ратио: None.


Зарегистрирован: 22 май 2018, 22:33
Сообщения: 646
Агата и сыск. Королева брильянтов


#777

Год выпуска: 2019
Производство: Россия, ООО «Зебра»
Жанр: Детектив, исторический, экранизация
Продолжительность: 4 x ~ 00:45:00
Субтитры: Отсутствуют

Режиссёр: Владимир Койфман

В ролях:
Дарья Ленда, Константин Крюков, Александр Половцев, Борис Хвошнянский, Егор Бакулин, Константин Шелестун, Светлана Обидина, Татьяна Полонская, Василий Рукша, Вера Плешанова

Описание:
По мотивам одноименного романа Антона Чижа. Конец 19 века. Она – начинающая мошенница. Юная, обворожительная, легко меняющая внешность. Он – проницательный, нестандартно мыслящий сыщик. Ее фамилия – Керн. Его – Пушкин. Совпадение или знак судьбы? Что толкнуло молодую дворянку на путь преступления, и как далеко сей путь может ее завести? Где ловкий сыщик устроит мошеннице западню и знакомо ли ему милосердие? Как завершится их поединок, в который, помимо авантюрной интриги, вплетаются убийства, мистика и, конечно, любовь?

Сэмпл: http://multi-up.com/1242279

Премьера: 28 сентября 2019 года (ТВЦ)

Реклама: Отсутствует

Качество: SATRip
Формат: AVI
Видео кодек: XviD
Аудио кодек: MP3
Видео: XviD, 720x400, ~ 1700 Кбит/с, 0.235 bit/pixel
Аудио: МР3, 2 ch, 192 Кбит/с
Общее
Полное имя : D:\Агата.и.сыск.Королева.брильянтов.XviD.2019.SATRip.7turza\01.Агата.и.сыск.Королева.брильянтов.7turza
Формат : AVI
Формат/Информация : Audio Video Interleave
Размер файла : 602 Мбайт
Продолжительность : 44 м. 18 с.
Общий поток : 1898 Кбит/сек
Программа кодирования : Lavf58.20.100
Библиотека кодирования : VirtualDub build 35576/release
Видео
Идентификатор : 0
Формат : MPEG-4 Visual
Профиль формата : Advanced Simple@L5
Настройки формата : BVOP1
Параметр BVOP формата : 1
Параметр QPel формата : Нет
Параметр GMC формата : Без точки перехода
Параметр матрицы формата : Default (H.263)
Идентификатор кодека : XVID
Идентификатор кодека/Подсказка : XviD
Продолжительность : 44 м. 18 с.
Битрейт : 1694 Кбит/сек
Ширина : 720 пикселей
Высота : 400 пикселей
Соотношение сторон : 1,85:1
Частота кадров : 25,000 кадров/сек
Цветовое пространство : YUV
Субдискретизация насыщенности : 4:2:0
Битовая глубина : 8 бит
Тип развёртки : Прогрессивная
Бит/(Пиксели*Кадры) : 0.235
Размер потока : 537 Мбайт (89%)
Библиотека кодирования : XviD 67
Аудио
Идентификатор : 1
Формат : MPEG Audio
Версия формата : Version 1
Профиль формата : Layer 3
Настройки формата : Joint stereo
Идентификатор кодека : 55
Идентификатор кодека/Подсказка : MP3
Продолжительность : 44 м. 18 с.
Вид битрейта : Постоянный
Битрейт : 192 Кбит/сек
Каналы : 2 канала
Частота : 48,0 КГц
Размер потока : 60,8 Мбайт (10%)
Выравнивание : Соединение по промежуткам
Продолжительность промежутка : 24 мс. (0,60 видеокадр)
Время предзагрузки промежутка : 504 мс.
Библиотека кодирования : LAME


Автор релиза:


Вернуться к началу
 Профиль Отправить личное сообщение  
Ответить с цитатой  
  • Торрент
Автор: Saturn Хэш: ---
Добавлен: 25 сен 2020, 20:21 Приватный: Нет (DHT включён)
Статус: Проверен
Размер: 2.34 ГБ (2 509 951 664 байт)
Изменил:
---
Скачали: 0 (Раздающих: 100%)
Причина:
---
Здоровье: 100%
Сидеров: 25 Личеров: 8
Скорость раздачи: 0 байт/сек Скорость скачивания: 0 байт/сек
Последний сидер: 5 месяцев 30 дней 23 часа 34 минуты 14 секунд назад Последний личер: 5 месяцев 30 дней 23 часа 34 минуты 14 секунд назад
Для скачивания торрента необходимо зарегистрироваться или войти на трекер.
Показать сообщения за:  Поле сортировки  
Начать новую тему Ответить на тему  [ 1 сообщение ] 


Кто сейчас на конференции

Сейчас этот форум просматривают: нет зарегистрированных пользователей и гости: 1


Вы не можете начинать темы
Вы не можете отвечать на сообщения
Вы не можете редактировать свои сообщения
Вы не можете удалять свои сообщения
Вы не можете добавлять вложения

Найти:
Перейти:  
Создано на основе phpBB® Forum Software © phpBB Group
ppkBB3cker v.2.5 © 2008-2021 @ PPK | Icon Theme by Everaldo.com Design Studio
Русская поддержка phpBB
[ Time : 0.044s | 13 Queries | GZIP : On ]
Ресурс не предоставляет электронные версии произведений, а занимается лишь коллекционированием и каталогизацией ссылок, присылаемых и публикуемых на форуме нашими читателями. Если вы являетесь правообладателем какого-либо представленного материала и не желаете чтобы ссылка на него находилась в нашем каталоге, свяжитесь с нами и мы незамедлительно удалим её. Файлы для обмена на трекере предоставлены пользователями сайта, и администрация не несёт ответственности за их содержание. Просьба не заливать файлы, защищенные авторскими правами, а также файлы нелегального содержания!