Jinta.ru

Полезный софт трекер





Начать новую тему Ответить на тему  [ 1 сообщение ] 
Автор Сообщение
СообщениеДобавлено: 28 сен 2021, 22:09 
Не в сети
Администратор
Аватара пользователя
Раздал: 8.48 ТБ
Скачал: 1 ТБ
Ратио: 1161.173


Зарегистрирован: 07 окт 2016, 01:02
Сообщения: 6219
Зачистка / The Cleaner
[S01]


#777
Информация о фильме
Название: Зачистка
Оригинальное название: The Cleaner
Год выхода: 2021
Выпущено: Великобритания / Studio Hamburg UK
Продолжительность: 6x ~00:27:00
Перевод: Профессиональный (многоголосый закадровый) [DoubleRec], Профессиональный (двухголосый закадровый) [Кубик в Кубе]
Жанр: Комедия

Режиссер: Том Маршалл, Алекс Винклер

В ролях: Грег Дэвис, Зита Сэттар, Хелена Бонем Картер, Пол Чоудхри, Шобу Капур, Зак Агомбар, Оливер Баррс, Пол Блэквелл, Эсмонд Коул, Стефани Коул....

О фильме:
Пол Уикстед по прозвищу Вики работает уборщиком мест преступлений. Когда криминалисты заканчивают работу, именно Вики приводит всё в порядок. Каждый день он проводит там, где простых граждан тошнит от ужаса, и сталкивается с самыми разными людьми — от родственников жертв до их убийц, и даже с призраками. И так как Вики — очень общительный тип, то иногда он сплетничает больше, чем работает.



ТРЕЙЛЕР

СЭМПЛ



Файл
Качество: WEB-DLRip-AVC
Формат: MKV
Видео: MPEG-4 AVC, 2500 Кбит/сек, 1024x512
Аудио #1: Русский (DoubleRec): AC3, 2 ch, 192 Кбит/сек
Аудио #2: Русский (Кубик в Кубе): AC3, 2 ch, 192 Кбит/сек
Аудио #3: Английский: AC3, 2 ch, 192 Кбит/сек
Субтитры: русские, английские [вшитые отключаемые]

Код:
 Общее
Уникальный идентификатор                 : 26327243327856796662727487888277063750 (0x13CE71500EB13224E0C1A553CD3F4846)
Полное имя                               : F:ФИЛЬМЫ1. ФИЛЬМЫЗачистка  The Cleaner (2021)Zachistka (1 sezon 1-6 seriy iz 6)  The Cleaner (2021) WEB-DLRip-AVCThe.Cleaner.S01.E01.2021.mkv
Формат                                   : Matroska
Версия формата                           : Version 4
Размер файла                             : 623 Мбайт
Продолжительность                        : 28 м. 15 с.
Общий поток                              : 3 083 Кбит/сек
Программа кодирования                    : Lavf
Библиотека кодирования                   : Lavf
Авторское право                          : CVAT  TV
ErrorDetectionType                       : Per level 1
Attachments                              : poster.jpg
Язык                                     : und

Видео
Идентификатор                            : 1
Формат                                   : AVC
Формат/Информация                        : Advanced Video Codec
Профиль формата                          : High@L4.1
Настройки формата                        : 11 Ref Frames
Параметр CABAC формата                   : Нет
Параметр RefFrames формата               : 11 кадров
Идентификатор кодека                     : V_MPEG4/ISO/AVC
Продолжительность                        : 28 м. 15 с.
Битрейт                                  : 2 500 Кбит/сек
Ширина                                   : 1 024 пикселя
Высота                                   : 512 пикселей
Соотношение сторон                       : 2,000
Режим частоты кадров                     : Постоянный
Частота кадров                           : 25,000 кадров/сек
Цветовое пространство                    : YUV
Субдискретизация насыщенности            : 4:2:0
Битовая глубина                          : 8 бит
Тип развёртки                            : Прогрессивная
Бит/(Пиксели*Кадры)                      : 0.191
Размер потока                            : 494 Мбайт (79%)
Заголовок                                : Great Britain (Studio Hamburg UK)
Библиотека кодирования                   : x264 core 159 r2991 1771b55
Настройки программы                      : cabac=0 / ref=11 / deblock=1:-3:-3 / analyse=0x3:0x133 / me=umh / subme=11 / psy=1 / psy_rd=1.05:0.15 / mixed_ref=1 / me_range=32 / chroma_me=1 / trellis=2 / 8x8dct=1 / cqm=0 / deadzone=21,11 / fast_pskip=0 / chroma_qp_offset=-3 / threads=23 / lookahead_threads=4 / sliced_threads=0 / nr=0 / decimate=0 / interlaced=0 / bluray_compat=0 / constrained_intra=0 / bframes=11 / b_pyramid=2 / b_adapt=2 / b_bias=9 / direct=3 / weightb=1 / open_gop=0 / weightp=2 / keyint=250 / keyint_min=25 / scenecut=40 / intra_refresh=0 / rc_lookahead=4 / rc=2pass / mbtree=0 / bitrate=2500 / ratetol=1.0 / qcomp=0.70 / qpmin=3 / qpmax=69 / qpstep=4 / cplxblur=20.0 / qblur=0.5 / vbv_maxrate=60000 / vbv_bufsize=40000 / nal_hrd=none / filler=0 / ip_ratio=1.40 / pb_ratio=1.30 / aq=2:1.00
Язык                                     : English
Default                                  : Да
Forced                                   : Нет
Цветовой диапазон                        : Limited
Основные цвета                           : BT.709
Характеристики трансфера                 : BT.709
Коэффициенты матрицы                     : BT.709

Аудио #1
Идентификатор                            : 2
Формат                                   : AC-3
Формат/Информация                        : Audio Coding 3
Коммерческое название                    : Dolby Digital
Идентификатор кодека                     : A_AC3
Продолжительность                        : 28 м. 15 с.
Вид битрейта                             : Постоянный
Битрейт                                  : 192 Кбит/сек
Каналы                                   : 2 канала
Channel layout                           : L R
Частота                                  : 48,0 КГц
Частота кадров                           : 31,250 кадров/сек (1536 SPF)
Битовая глубина                          : 32 бит
Метод сжатия                             : С потерями
Размер потока                            : 38,8 Мбайт (6%)
Заголовок                                : MVO (DoubleRec)
Язык                                     : Russian
Service kind                             : Complete Main
Default                                  : Да
Forced                                   : Нет

Аудио #2
Идентификатор                            : 3
Формат                                   : AC-3
Формат/Информация                        : Audio Coding 3
Коммерческое название                    : Dolby Digital
Идентификатор кодека                     : A_AC3
Продолжительность                        : 28 м. 15 с.
Вид битрейта                             : Постоянный
Битрейт                                  : 192 Кбит/сек
Каналы                                   : 2 канала
Channel layout                           : L R
Частота                                  : 48,0 КГц
Частота кадров                           : 31,250 кадров/сек (1536 SPF)
Битовая глубина                          : 32 бит
Метод сжатия                             : С потерями
Размер потока                            : 38,8 Мбайт (6%)
Заголовок                                : DVO (Cube in Cuba)
Язык                                     : Russian
Service kind                             : Complete Main
Default                                  : Нет
Forced                                   : Нет

Аудио #3
Идентификатор                            : 4
Формат                                   : AC-3
Формат/Информация                        : Audio Coding 3
Коммерческое название                    : Dolby Digital
Идентификатор кодека                     : A_AC3
Продолжительность                        : 28 м. 15 с.
Вид битрейта                             : Постоянный
Битрейт                                  : 192 Кбит/сек
Каналы                                   : 2 канала
Channel layout                           : L R
Частота                                  : 48,0 КГц
Частота кадров                           : 31,250 кадров/сек (1536 SPF)
Битовая глубина                          : 32 бит
Метод сжатия                             : С потерями
Размер потока                            : 38,8 Мбайт (6%)
Заголовок                                : Original (English)
Язык                                     : English
Service kind                             : Complete Main
Default                                  : Нет
Forced                                   : Нет

Текст #1
Идентификатор                            : 5
Формат                                   : UTF-8
Идентификатор кодека                     : S_TEXT/UTF8
Идентификатор кодека/Информация          : UTF-8 Plain Text
Язык                                     : Russian
Default                                  : Да
Forced                                   : Нет

Текст #2
Идентификатор                            : 6
Формат                                   : UTF-8
Идентификатор кодека                     : S_TEXT/UTF8
Идентификатор кодека/Информация          : UTF-8 Plain Text
Язык                                     : English
Default                                  : Нет
Forced                                   : Нет
 


Вернуться к началу
 Профиль Отправить личное сообщение  
Ответить с цитатой  
  • Торрент
Автор: Titan Хэш: ---
Добавлен: 28 сен 2021, 22:09 Приватный: Нет (DHT включён)
Статус: Проверен
Размер: 3.72 ГБ (3 995 412 418 байт)
Изменил:
---
Скачали: 1149 (Раздающих: 54%)
Причина:
---
Здоровье: 100%
Сидеров: 621 Личеров: 343
Скорость раздачи: 0 байт/сек Скорость скачивания: 0 байт/сек
Последний сидер: 6 месяцев 29 минут 20 секунд назад Последний личер: 6 месяцев 29 минут 20 секунд назад
Для скачивания торрента необходимо зарегистрироваться или войти на трекер.
Показать сообщения за:  Поле сортировки  
Начать новую тему Ответить на тему  [ 1 сообщение ] 


Кто сейчас на конференции

Сейчас этот форум просматривают: нет зарегистрированных пользователей и гости: 1


Вы не можете начинать темы
Вы не можете отвечать на сообщения
Вы не можете редактировать свои сообщения
Вы не можете удалять свои сообщения
Вы не можете добавлять вложения

Найти:
Перейти:  
cron
Создано на основе phpBB® Forum Software © phpBB Group
ppkBB3cker v.2.5 © 2008-2021 @ PPK | Icon Theme by Everaldo.com Design Studio
Русская поддержка phpBB
[ Time : 0.047s | 15 Queries | GZIP : On ]
Ресурс не предоставляет электронные версии произведений, а занимается лишь коллекционированием и каталогизацией ссылок, присылаемых и публикуемых на форуме нашими читателями. Если вы являетесь правообладателем какого-либо представленного материала и не желаете чтобы ссылка на него находилась в нашем каталоге, свяжитесь с нами и мы незамедлительно удалим её. Файлы для обмена на трекере предоставлены пользователями сайта, и администрация не несёт ответственности за их содержание. Просьба не заливать файлы, защищенные авторскими правами, а также файлы нелегального содержания!