Jinta.ru

Полезный софт трекер





Начать новую тему Ответить на тему  [ 1 сообщение ] 
Автор Сообщение
СообщениеДобавлено: 16 ноя 2018, 19:24 
Не в сети
Администратор
Аватара пользователя
Раздал: 8.09 ТБ
Скачал: 941.25 ГБ
Ратио: 1155.220


Зарегистрирован: 07 окт 2016, 01:02
Сообщения: 5578
Фантастические твари и где они обитают / Fantastic Beasts and Where to Find Them


#777

Год выпуска: 2016
Страна: Великобритания, США / Warner Bros. Pictures, Heyday Fims
Продолжительность: 02:12:52
Перевод: Профессиональный (дублированный)
Субтитры: русские, украинские, английские
Оригинальная аудиодорожка: английский
Жанр: фэнтези, приключения, семейный

Режиссер: Дэвид Йейтс / David Yates

В ролях:
Эдди Редмэйн, Кэтрин Уотерстон, Дэн Фоглер, Элисон Судол, Колин Фаррелл, Кармен Эджого, Эзра Миллер, Саманта Мортон, Рон Перлман, Джон Войт.

Описание:
Поиск и изучение необычайных волшебных существ приводят магозоолога Ньюта Саламандера в Нью-Йорк. Скорее всего, он отбыл бы на поезде дальше, если бы не не маг (так в Америке называют магглов) по имени Якоб, оставленный в неположенном месте магический чемодан и побег из него фантастических животных Ньюта.

Рейтинг
kinopoisk.ru
7.536 (127 331)
imdb.com 7.40 (234 543)

Формат 3D: Half SideBySide / Горизонтальная анаморфная стереопара
Качество: BDRip (ThD - HDClub)
Контейнер: MKV
Видео: 1920x1080 at 23.976 fps, x264@L4.1, crf, ~13600 kbps avg
Аудио 1: Russian 48 kHz, AC3, 3/2 (L,C,R,l,r) + LFE ch, ~448.00 kbps avg | Дубляж BD CEE
Аудио 2: Ukrainian 48 kHz, AAC, 2/0 (L,R) ch, ~160.00 kbps avg | Дубдяж iTunes
Аудио 3: English 48 kHz, DTS, 3/2 (L,C,R,l,r) + LFE ch, ~1509.00 kbps avg | Original
Субтитры: русские (форсированные, полные), украинские (форсированные), английские (полные, полные SDH)
Формат : Matroska
Версия формата : Version 4 / Version 2
Размер файла : 14,6 Гбайт
Продолжительность : 2 ч. 12 м.
Общий поток : 15,7 Мбит/сек
Название фильма : Fantastic Beasts and Where to Find Them (2016) [3D] - Release for HDCLUB
Дата кодирования : UTC 2017-08-20 17:59:16
Программа кодирования : mkvmerge v13.0.0 ('The Juggler') 32bit
Библиотека кодирования : libebml v1.3.4 + libmatroska v1.4.5
Видео
Идентификатор : 1
Формат : AVC
Формат/Информация : Advanced Video Codec
Профиль формата : High@L4.1
MultiView_Count : 2
MultiView_Layout : Side by Side (left eye first)
Параметр CABAC формата : Да
Параметр RefFrames формата : 4 кадра
Идентификатор кодека : V_MPEG4/ISO/AVC
Продолжительность : 2 ч. 12 м.
Битрейт : 13,6 Мбит/сек
Ширина : 1920 пикселей
Высота : 1080 пикселей
Соотношение сторон : 16:9
Режим частоты кадров : Постоянный
Частота кадров : 23,976 (24000/1001) кадра/сек
Цветовое пространство : YUV
Субдискретизация насыщенности : 4:2:0
Битовая глубина : 8 бит
Тип развёртки : Прогрессивная
Бит/(Пиксели*Кадры) : 0.274
Размер потока : 12,7 Гбайт (87%)
Заголовок : Fantastic Beasts and Where to Find Them (2016) [3D] - Release for HDCLUB
Библиотека кодирования : x264 core 148 r2744kMod b97ae06
Настройки программы : opencl=1 / cabac=1 / ref=4 / deblock=1:-3:-3 / analyse=0x3:0x133 / me=umh / subme=9 / psy=1 / fade_compensate=0.00 / psy_rd=1.05:0.00 / mixed_ref=1 / me_range=32 / chroma_me=1 / trellis=2 / 8x8dct=1 / cqm=0 / deadzone=21,11 / fast_pskip=0 / chroma_qp_offset=-2 / threads=34 / lookahead_threads=5 / sliced_threads=0 / nr=0 / decimate=0 / interlaced=0 / bluray_compat=0 / constrained_intra=0 / bframes=9 / b_pyramid=2 / b_adapt=2 / b_bias=0 / direct=3 / weightb=1 / open_gop=0 / weightp=2 / keyint=250 / keyint_min=23 / scenecut=40 / intra_refresh=0 / rc=crf / mbtree=0 / crf=17.5000 / qcomp=0.65 / qpmin=0 / qpmax=69 / qpstep=4 / frame-packing=3 / ip_ratio=1.30 / pb_ratio=1.20 / aq=3:0.80
Язык : English
Default : Да
Forced : Нет
Аудио #1
Идентификатор : 2
Формат : AC-3
Формат/Информация : Audio Coding 3
Параметр Endianness формата : Big
Идентификатор кодека : A_AC3
Продолжительность : 2 ч. 12 м.
Вид битрейта : Постоянный
Битрейт : 448 Кбит/сек
Каналы : 6 каналов
Расположение каналов : Front: L C R, Side: L R, LFE
Частота : 48,0 КГц
Частота кадров : 31,250 кадров/сек (1536 SPF)
Битовая глубина : 16 бит
Метод сжатия : С потерями
Размер потока : 426 Мбайт (3%)
Заголовок : AC3 5.1 @ 448 kbps - DUB, Blu-ray CEE
Язык : Russian
ServiceKind/String : Complete Main
Default : Да
Forced : Нет
Аудио #2
Идентификатор : 3
Формат : AAC
Формат/Информация : Advanced Audio Codec
Профиль формата : HE-AAC / LC
Идентификатор кодека : A_AAC
Продолжительность : 2 ч. 12 м.
Битрейт : 157 Кбит/сек
Каналы : 2 канала
Расположение каналов : Front: L R
Частота : 96,0 КГц / 48,0 КГц
Частота кадров : 46,875 кадров/сек (1024 SPF)
Метод сжатия : С потерями
Размер потока : 149 Мбайт (1%)
Заголовок : AAC 2.0 @ 160 kbps - DUB, iTunes
Язык : Ukrainian
Default : Нет
Forced : Нет
Аудио #3
Идентификатор : 4
Формат : DTS
Формат/Информация : Digital Theater Systems
Режим : 16
Параметр Endianness формата : Big
Идентификатор кодека : A_DTS
Продолжительность : 2 ч. 12 м.
Вид битрейта : Постоянный
Битрейт : 1509 Кбит/сек
Каналы : 6 каналов
Расположение каналов : Front: L C R, Side: L R, LFE
Частота : 48,0 КГц
Частота кадров : 93,750 кадра/сек (512 SPF)
Битовая глубина : 24 бит
Метод сжатия : С потерями
Размер потока : 1,40 Гбайт (10%)
Заголовок : DTS 5.1 @ 1536 kbps
Язык : English
Default : Нет
Forced : Нет
Текст #1
Идентификатор : 5
Формат : UTF-8
Идентификатор кодека : S_TEXT/UTF8
Идентификатор кодека/Информация : UTF-8 Plain Text
Продолжительность : 2 ч. 2 м.
Битрейт : 4 бит/сек
ElementCount : 61
Размер потока : 3,67 Кбайт (0%)
Заголовок : Forced, iTunes
Язык : Russian
Default : Да
Forced : Нет
Текст #2
Идентификатор : 6
Формат : UTF-8
Идентификатор кодека : S_TEXT/UTF8
Идентификатор кодека/Информация : UTF-8 Plain Text
Продолжительность : 2 ч. 12 м.
Битрейт : 65 бит/сек
ElementCount : 1316
Размер потока : 63,3 Кбайт (0%)
Заголовок : iTunes
Язык : Russian
Default : Нет
Forced : Нет
Текст #3
Идентификатор : 7
Формат : UTF-8
Идентификатор кодека : S_TEXT/UTF8
Идентификатор кодека/Информация : UTF-8 Plain Text
Продолжительность : 2 ч. 2 м.
Битрейт : 2 бит/сек
ElementCount : 40
Размер потока : 2,38 Кбайт (0%)
Заголовок : Forced, iTunes
Язык : Ukrainian
Default : Нет
Forced : Нет
Текст #4
Идентификатор : 8
Формат : UTF-8
Идентификатор кодека : S_TEXT/UTF8
Идентификатор кодека/Информация : UTF-8 Plain Text
Продолжительность : 2 ч. 1 м.
Битрейт : 41 бит/сек
ElementCount : 1303
Размер потока : 37,1 Кбайт (0%)
Заголовок : Full
Язык : English
Default : Нет
Forced : Нет
Текст #5
Идентификатор : 9
Формат : UTF-8
Идентификатор кодека : S_TEXT/UTF8
Идентификатор кодека/Информация : UTF-8 Plain Text
Продолжительность : 2 ч. 2 м.
Битрейт : 48 бит/сек
ElementCount : 1598
Размер потока : 43,3 Кбайт (0%)
Заголовок : SDH
Язык : English
Default : Нет
Forced : Нет
Меню
00:00:00.000 : en:00:00:00.000
00:08:40.270 : en:00:08:40.270
00:18:55.718 : en:00:18:55.718
00:28:23.660 : en:00:28:23.660
00:38:34.187 : en:00:38:34.187
00:48:08.594 : en:00:48:08.594
00:58:19.246 : en:00:58:19.246
01:09:14.692 : en:01:09:14.692
01:17:26.392 : en:01:17:26.392
01:29:33.660 : en:01:29:33.660
01:38:02.085 : en:01:38:02.085
01:50:27.871 : en:01:50:27.871
01:59:04.471 : en:01:59:04.471
02:04:12.820 : en:02:04:12.820


Вернуться к началу
 Профиль Отправить личное сообщение  
Ответить с цитатой  
  • Торрент
Автор: Titan Хэш: ---
Добавлен: 16 ноя 2018, 19:24 Приватный: Нет (DHT включён)
Статус: Проверен
Размер: 14.62 ГБ (15 693 214 187 байт)
Изменил:
---
Скачали: 0 (Раздающих: 100%)
Причина:
---
Здоровье: 100%
Сидеров: 34 Личеров: 11
Скорость раздачи: 0 байт/сек Скорость скачивания: 0 байт/сек
Последний сидер: 1 год 5 месяцев 5 дней 11 часов 46 минут 25 секунд назад Последний личер: 1 год 5 месяцев 5 дней 11 часов 46 минут 25 секунд назад
Для скачивания торрента необходимо зарегистрироваться или войти на трекер.
Показать сообщения за:  Поле сортировки  
Начать новую тему Ответить на тему  [ 1 сообщение ] 


Кто сейчас на конференции

Сейчас этот форум просматривают: нет зарегистрированных пользователей и гости: 1


Вы не можете начинать темы
Вы не можете отвечать на сообщения
Вы не можете редактировать свои сообщения
Вы не можете удалять свои сообщения
Вы не можете добавлять вложения

Найти:
Перейти:  
cron
Создано на основе phpBB® Forum Software © phpBB Group
ppkBB3cker v.2.5 © 2008-2019 @ PPK | Icon Theme by Everaldo.com Design Studio
Русская поддержка phpBB
[ Time : 0.049s | 13 Queries | GZIP : On ]
Ресурс не предоставляет электронные версии произведений, а занимается лишь коллекционированием и каталогизацией ссылок, присылаемых и публикуемых на форуме нашими читателями. Если вы являетесь правообладателем какого-либо представленного материала и не желаете чтобы ссылка на него находилась в нашем каталоге, свяжитесь с нами и мы незамедлительно удалим её. Файлы для обмена на трекере предоставлены пользователями сайта, и администрация не несёт ответственности за их содержание. Просьба не заливать файлы, защищенные авторскими правами, а также файлы нелегального содержания!