Jinta.ru

Полезный софт трекер





Начать новую тему Ответить на тему  [ 1 сообщение ] 
Автор Сообщение
СообщениеДобавлено: 15 июл 2019, 09:48 
Не в сети
Администратор
Аватара пользователя
Раздал: 1.7 ТБ
Скачал: 282.81 ГБ
Ратио: 1025.761


Зарегистрирован: 07 окт 2016, 01:02
Сообщения: 4699
Запретная Зона 3D / Bunker of the Dead


#777

Год выпуска: 2015
Страна: Германия (Praetoria Productions)
Продолжительность: 01:16:29
Перевод: Профессиональный дублированный(Line)
Русские субтитры: нет
Жанр: ужасы, боевик, комедия

Режиссер: Маттиас Олоф Ейх / Matthias Olof Eich

В ролях:
Патрик Янс, Эстер Маас, Ациель Мартинес Пол, Кристофер Ли Медоуз, Хуан Карлос Лопез, Сарита Брэдли, Кристиан Джангуирт, Вернер Хофман, Уэсли Ховард, Питер Коллер

Описание:
Двое друзей Пол и Маркус находят в одном из старых дневников описание расположения секретного подземного бункера времен Второй мировой войны. Вооружившись специальным 3D девайсом, передающим изображение «от первого лица» один из них отправляется на место, а второй помогает на расстоянии, отслеживая его перемещения и давая правильные советы.
Вход в бункер находится на территории американской военной базы. С опасными приключениями Пол проникает в подземелье. Правда он еще не знает, что его визит не остался незамеченным. И речь идет не только о военных, теперь за ним следит нечто мрачное и зловещее, находившееся в заточении более 70 лет…


Сэмпл: http://sendfile.su/1505808

Качество: BDrip, 1080p
Контейнер: MKV
Формат 3D: OverUnder / Вертикальная стереопара
Порядок ракурсов: левый ракурс первый
Видео кодек: x264
Аудио кодек: AC3
Видео: AVC / High@L5.0 / 23,976 fps / 1920х2160 / 17,2 Мбит/сек
Аудио: Русский / AC3 / 48 KHz / 2.0 ch / 256 Кбит/сек(Line)
Аудио 2: Английский / AC3 / 48 KHz / 5.1 ch / 640 Кбит/сек

ВНИМАНИЕ ! На встроенных ТВ-плеерах работать не будет!!!
ТВ Samsung в названии которого есть надпись Ultra HD , и LG Ultra HD 800 серии, LG C6P, Xiaomi Mi TV 2 воспроизводят полные стереопары встроенными плеерами
Железные плееры на которых воспроизводятся полные стереопары:Popcorn C-200 , Dune HD Smart D1 , Dune HD DUO , Dune HD Smart H1 , Dune HD Smart B1 , Dune HD Max , Dune HD TV-303D, Dune HD TV-102, Dune HD Base 3D, Philips HMP7001, Aura HD, MECOOL BB2
Чтобы изображение было на весь экран в плеере выставляем, если рип 1920х1600 - то выставляем 2.35:1 , если 1920х2160 - то выставляем 16:9
Общее
Уникальный идентификатор : 221647363906891893708739557640373732380 (0xA6BFBAC21A62AC888DABBCB11D17041C)
Полное имя : E:\видео\Bunker of the Dead.Rip by SeRoGa00.mkv
Формат : Matroska
Версия формата : Version 2
Размер файла : 9,87 Гбайт
Продолжительность : 1 ч. 16 м.
Общий поток : 18,5 Мбит/сек
Дата кодирования : UTC 2019-07-14 18:15:22
Программа кодирования : mkvmerge v3.4.0 ('Rapunzel') сборка от May 15 2010 09:38:20
Библиотека кодирования : libebml v0.8.0 + libmatroska v0.9.0

Видео
Идентификатор : 1
Формат : AVC
Формат/Информация : Advanced Video Codec
Профиль формата : High@L5.0
Параметр CABAC формата : Да
Параметр ReFrames формата : 4 кадра
Идентификатор кодека : V_MPEG4/ISO/AVC
Продолжительность : 1 ч. 16 м.
Битрейт : 17,2 Мбит/сек
Ширина : 1920 пикселей
Высота : 2160 пикселей
Соотношение сторон : 0,889
Частота кадров : 23,976 кадра/сек
Цветовое пространство : YUV
Субдискретизация насыщенности : 4:2:0
Битовая глубина : 8 бит
Тип развёртки : Прогрессивная
Бит/(Пиксели*Кадры) : 0.173
Размер потока : 9,20 Гбайт (93%)
Заголовок : Rip by SeRoGa00
Библиотека кодирования : x264 core 155 r2901 7d0ff22
Настройки программы : cabac=1 / ref=4 / deblock=1:-3:-3 / analyse=0x3:0x113 / me=umh / subme=10 / psy=1 / psy_rd=1.00:0.15 / mixed_ref=1 / me_range=24 / chroma_me=1 / trellis=2 / 8x8dct=1 / cqm=0 / deadzone=21,11 / fast_pskip=1 / chroma_qp_offset=-3 / threads=18 / lookahead_threads=6 / sliced_threads=0 / nr=0 / decimate=0 / interlaced=0 / bluray_compat=0 / constrained_intra=0 / bframes=10 / b_pyramid=2 / b_adapt=2 / b_bias=0 / direct=3 / weightb=1 / open_gop=0 / weightp=2 / keyint=250 / keyint_min=23 / scenecut=40 / intra_refresh=0 / rc_lookahead=60 / rc=crf / mbtree=1 / crf=16.5 / qcomp=0.60 / qpmin=10 / qpmax=69 / qpstep=4 / vbv_maxrate=40000 / vbv_bufsize=40000 / crf_max=0.0 / nal_hrd=none / filler=0 / ip_ratio=1.40 / aq=1:1.00
Язык : English
Default : Нет
Forced : Нет

Аудио #1
Идентификатор : 2
Формат : AC-3
Формат/Информация : Audio Coding 3
Расширение режима : CM (complete main)
Параметр Endianness формата : Big
Идентификатор кодека : A_AC3
Продолжительность : 1 ч. 16 м.
Вид битрейта : Постоянный
Битрейт : 256 Кбит/сек
Каналы : 2 канала
Расположение каналов : Front: L R
Частота : 48,0 КГц
Битовая глубина : 16 бит
Метод сжатия : С потерями
Размер потока : 140 Мбайт (1%)
Язык : Russian
Default : Да
Forced : Нет

Аудио #2
Идентификатор : 3
Формат : AC-3
Формат/Информация : Audio Coding 3
Расширение режима : CM (complete main)
Параметр Endianness формата : Big
Идентификатор кодека : A_AC3
Продолжительность : 1 ч. 16 м.
Вид битрейта : Постоянный
Битрейт : 640 Кбит/сек
Каналы : 6 каналов
Расположение каналов : Front: L C R, Side: L R, LFE
Частота : 48,0 КГц
Битовая глубина : 16 бит
Метод сжатия : С потерями
Размер потока : 350 Мбайт (3%)
Язык : English
Default : Нет
Forced : Нет

Меню
00:00:00.000 : :1
00:06:32.142 : :2
00:11:55.715 : :3
00:15:45.319 : :4
00:28:12.774 : :5
00:32:47.841 : :6
00:39:22.944 : :7
00:47:14.206 : :8
00:53:58.735 : :9
00:59:28.273 : :10
01:05:24.587 : :11
01:09:44.055 : :12
  

  

  

  

  

 
 


Вернуться к началу
 Профиль Отправить личное сообщение  
Ответить с цитатой  
  • Торрент
Автор: Titan Хэш: ---
Добавлен: 15 июл 2019, 09:48 Приватный: Нет (DHT включён)
Статус: Проверен
Размер: 9.87 ГБ (10 600 958 037 байт)
Изменил:
---
Скачали: 0 (Раздающих: 0%)
Причина:
---
Здоровье: 0%
Сидеров: 0 Личеров: 0
Скорость раздачи: 0 байт/сек Скорость скачивания: 0 байт/сек
Последний сидер: Нет Последний личер: Нет
Для скачивания торрента необходимо зарегистрироваться или войти на трекер.
Показать сообщения за:  Поле сортировки  
Начать новую тему Ответить на тему  [ 1 сообщение ] 


Кто сейчас на конференции

Сейчас этот форум просматривают: нет зарегистрированных пользователей и гости: 1


Вы не можете начинать темы
Вы не можете отвечать на сообщения
Вы не можете редактировать свои сообщения
Вы не можете удалять свои сообщения
Вы не можете добавлять вложения

Найти:
Перейти:  
cron
Создано на основе phpBB® Forum Software © phpBB Group
ppkBB3cker v.2.5 © 2008-2019 @ PPK | Icon Theme by Everaldo.com Design Studio
Русская поддержка phpBB
Ресурс не предоставляет электронные версии произведений, а занимается лишь коллекционированием и каталогизацией ссылок, присылаемых и публикуемых на форуме нашими читателями. Если вы являетесь правообладателем какого-либо представленного материала и не желаете чтобы ссылка на него находилась в нашем каталоге, свяжитесь с нами и мы незамедлительно удалим её. Файлы для обмена на трекере предоставлены пользователями сайта, и администрация не несёт ответственности за их содержание. Просьба не заливать файлы, защищенные авторскими правами, а также файлы нелегального содержания!