Jinta.ru

Полезный софт трекер





Начать новую тему Ответить на тему  [ 1 сообщение ] 
Автор Сообщение
СообщениеДобавлено: 25 мар 2020, 15:56 
Не в сети
Администратор
Аватара пользователя
Раздал: 7.48 ТБ
Скачал: 884.37 ГБ
Ратио: 1143.829


Зарегистрирован: 07 окт 2016, 01:02
Сообщения: 5408
Джентльмены / The Gentlemen


#777

Информация о фильме
Название: Джентльмены
Оригинальное название: The Gentlemen
Год выхода: 2019
Страна: США
Студия: Miramax Films
Продолжительность: 01:53:15
Перевод: Любительский многоголосый | Mallorn
Жанр: Боевик, комедия, криминал

Режиссер: Гай Ричи

В ролях:
Мэттью МакКонахи, Чарли Ханнэм, Мишель Докери, Джереми Стронг, Лайн Рени, Колин Фаррелл, Генри Голдинг, Том Ву, Чиди Аджуфо, Хью Грант

О фильме:
Талантливый выпускник Оксфорда, применив свой уникальный ум и невиданную дерзость, придумал нелегальную схему обогащения с использованием поместья обедневшей английской аристократии. Однако когда он решает продать свой бизнес влиятельному клану миллиардеров из США, на его пути встают не менее обаятельные, но жесткие джентльмены. Намечается обмен любезностями, который точно не обойдется без перестрелок и парочки несчастных случаев.



*** Присутствует ненормативная лексика!

Файл
Кодек: AVC
Качество: WEB-DL 720p | The.Gentlemen.2019.720p.AMZN.WEB-DL.DDP5.1.H.264-TEPES
Видео: MPEG-4 AVC, 3666 Kбит/с, 1248x520, 23.976 кадр/с
Аудио #1: Русский (E-АС3, 6 ch, 640 Кбит/с, 48.0 KHz) Любительский (многоголосый, закадровый) Mallorn
Аудио #2: Английский (E-АС3, 6 ch, 640 Кбит/с, 48.0 KHz)
Субтитры: Русские (Forced, Full, (MENINSUB), английские
► Без Рекламы!
Трейлер
Источник: The.Gentlemen.2019.720p.AMZN.WEB-DL.DDP5.1.H.264-TEPES
General
Unique ID : 222842854725659138411120410404863298310 (0xA7A5F9019D5C1582A898861FCBEF4B06)
Complete name : The.Gentlemen.2019.AMZN.WEB-DL.720p.mkv
Format : Matroska
Format version : Version 4
File size : 3.92 GiB
Duration : 1 h 53 min
Overall bit rate : 4 949 kb/s
Encoded date : UTC 2020-03-25 05:51:14
Writing application : mkvmerge v7.1.0 ('Good Love') 64bit built on Jul 27 2014 13:06:55
Writing library : libebml v1.3.0 + libmatroska v1.4.1

Video
ID : 1
Format : AVC
Format/Info : Advanced Video Codec
Format profile : High@L3.1
Format settings : CABAC / 4 Ref Frames
Format settings, CABAC : Yes
Format settings, Reference fra : 4 frames
Codec ID : V_MPEG4/ISO/AVC
Duration : 1 h 53 min
Bit rate mode : Constant
Bit rate : 3 666 kb/s
Nominal bit rate : 6 000 kb/s
Width : 1 248 pixels
Height : 520 pixels
Display aspect ratio : 2.40:1
Frame rate mode : Constant
Frame rate : 23.976 (24000/1001) FPS
Color space : YUV
Chroma subsampling : 4:2:0
Bit depth : 8 bits
Scan type : Progressive
Bits/(Pixel*Frame) : 0.236
Stream size : 2.90 GiB (74%)
Language : English
Default : Yes
Forced : No
Color range : Limited
Color primaries : BT.709
Transfer characteristics : BT.709
Matrix coefficients : BT.709

Audio #1
ID : 2
Format : E-AC-3
Format/Info : Enhanced AC-3
Commercial name : Dolby Digital Plus
Codec ID : A_EAC3
Duration : 1 h 53 min
Bit rate mode : Constant
Bit rate : 640 kb/s
Channel(s) : 6 channels
Channel layout : L R C LFE Ls Rs
Sampling rate : 48.0 kHz
Frame rate : 31.250 FPS (1536 SPF)
Compression mode : Lossy
Stream size : 518 MiB (13%)
Title : Mallorn
Language : Russian
Service kind : Complete Main
Default : Yes
Forced : No

Audio #2
ID : 3
Format : E-AC-3
Format/Info : Enhanced AC-3
Commercial name : Dolby Digital Plus
Codec ID : A_EAC3
Duration : 1 h 53 min
Bit rate mode : Constant
Bit rate : 640 kb/s
Channel(s) : 6 channels
Channel layout : L R C LFE Ls Rs
Sampling rate : 48.0 kHz
Frame rate : 31.250 FPS (1536 SPF)
Compression mode : Lossy
Stream size : 518 MiB (13%)
Language : English
Service kind : Complete Main
Default : No
Forced : No

Text #1
ID : 4
Format : UTF-8
Codec ID : S_TEXT/UTF8
Codec ID/Info : UTF-8 Plain Text
Duration : 1 h 45 min
Bit rate : 4 b/s
Count of elements : 46
Stream size : 3.37 KiB (0%)
Title : Forced
Language : Russian
Default : Yes
Forced : No

Text #2
ID : 5
Format : UTF-8
Codec ID : S_TEXT/UTF8
Codec ID/Info : UTF-8 Plain Text
Duration : 1 h 47 min
Bit rate : 145 b/s
Count of elements : 1874
Stream size : 115 KiB (0%)
Title : MENINSUB
Language : Russian
Default : No
Forced : No

Text #3
ID : 6
Format : UTF-8
Codec ID : S_TEXT/UTF8
Codec ID/Info : UTF-8 Plain Text
Duration : 1 h 47 min
Bit rate : 84 b/s
Count of elements : 1812
Stream size : 67.0 KiB (0%)
Language : English
Default : No
Forced : No

Text #4
ID : 7
Format : UTF-8
Codec ID : S_TEXT/UTF8
Codec ID/Info : UTF-8 Plain Text
Duration : 1 h 50 min
Bit rate : 94 b/s
Count of elements : 2088
Stream size : 76.8 KiB (0%)
Title : SDH
Language : English
Default : No
Forced : No

Menu
00:00:00.000 : en:Studio Logo
00:00:38.000 : en:Scene 2
00:01:00.000 : en:Opening Credits
00:01:19.000 : en:Scene 4
00:02:14.000 : en:Title Sequence
00:04:03.000 : en:Scene 6
00:13:19.000 : en:Scene 7
00:22:08.000 : en:Scene 8
00:28:52.000 : en:Scene 9
00:35:29.000 : en:Scene 10
00:39:20.000 : en:Scene 11
00:43:52.000 : en:Scene 12
00:55:51.000 : en:Scene 13
01:06:29.000 : en:Scene 14
01:11:48.000 : en:Scene 15
01:29:00.000 : en:Scene 16
01:38:51.000 : en:Scene 17
01:48:14.000 : en:End Credits


Вернуться к началу
 Профиль Отправить личное сообщение  
Ответить с цитатой  
  • Торрент
Автор: Titan Хэш: ---
Добавлен: 25 мар 2020, 15:56 Приватный: Нет (DHT включён)
Статус: Проверен
Размер: 3.92 ГБ (4 203 859 702 байт)
Изменил:
---
Скачали: 13604 (Раздающих: 35%)
Причина:
---
Здоровье: 100%
Сидеров: 4751 Личеров: 2004
Скорость раздачи: 0 байт/сек Скорость скачивания: 0 байт/сек
Последний сидер: 5 дней 18 часов 17 минут 4 секунды назад Последний личер: 5 дней 18 часов 17 минут 4 секунды назад
Для скачивания торрента необходимо зарегистрироваться или войти на трекер.
Показать сообщения за:  Поле сортировки  
Начать новую тему Ответить на тему  [ 1 сообщение ] 


Кто сейчас на конференции

Сейчас этот форум просматривают: нет зарегистрированных пользователей и гости: 2


Вы не можете начинать темы
Вы не можете отвечать на сообщения
Вы не можете редактировать свои сообщения
Вы не можете удалять свои сообщения
Вы не можете добавлять вложения

Найти:
Перейти:  
cron
Создано на основе phpBB® Forum Software © phpBB Group
ppkBB3cker v.2.5 © 2008-2019 @ PPK | Icon Theme by Everaldo.com Design Studio
Русская поддержка phpBB
Ресурс не предоставляет электронные версии произведений, а занимается лишь коллекционированием и каталогизацией ссылок, присылаемых и публикуемых на форуме нашими читателями. Если вы являетесь правообладателем какого-либо представленного материала и не желаете чтобы ссылка на него находилась в нашем каталоге, свяжитесь с нами и мы незамедлительно удалим её. Файлы для обмена на трекере предоставлены пользователями сайта, и администрация не несёт ответственности за их содержание. Просьба не заливать файлы, защищенные авторскими правами, а также файлы нелегального содержания!