Jinta.ru

Полезный софт трекер





Начать новую тему Ответить на тему  [ 1 сообщение ] 
Автор Сообщение
 Заголовок сообщения: Ржев (2019) BDRip 720p | Лицензия
СообщениеДобавлено: 19 фев 2021, 19:51 
Не в сети
Администратор
Аватара пользователя
Раздал: 3.76 ТБ
Скачал: 718.44 ГБ
Ратио: 1102.921


Зарегистрирован: 30 июл 2016, 22:43
Сообщения: 3435
#777

Информация о фильме
Название: Ржев
Год выхода: 2019
Страна: Россия
Студия: Триикс Медиа
Продолжительность: 01:58:12
Язык: Русский | Лицензия (Blu-Ray RUS)
Жанр: Военный, драма, история

Режиссер: Игорь Копылов

В ролях: Сергей Жарков, Иван Батарев, Олег Гаянов, Арсений Семёнов, Александр Горбатов (II), Александр Бухаров, Григорий Некрасов, Игорь Грабузов, Александр Аравушкин, Дан Розин, Александр Плаксин, Андрей Коровниченко, Пётр Логачёв, Данила Воропаев, Олег Абалян, Роман Грибков, Пётр Маёршин, Фома Бызгу, Николай Яковлев (III), Евгений Антонов, Даниил Кокин, Сергей Агафонов

О фильме:
1942 год. Ржевская битва. После боев под селом Овсянниково от роты советских солдат осталась только треть. Бойцы пытаются продержаться до прихода подкрепления. Но из штаба поступает приказ удержать деревню любой ценой. Значит, отступать нельзя... Каждый из героев понимает, что живыми из этого переплета выбраться почти невозможно. В этот момент в Овсянниково, едва не погибнув под вражеским обстрелом, прибывает младший лейтенант - начальник особого отдела, который должен найти и разоблачить предателей среди своих. Лейтенант уверен, что только так можно приблизить победу. События приобретают непредсказуемый оборот.



Качество: BDRip 720p
Видео: MPEG-4 AVC, 1280x536, 5130 Kbit/s, 24.000 fps
Аудио: 48 kHz, AC3, 5.1, 640 Kbps | RUS |
Субтитры: Нет



General
Unique ID : 249875875520729608608092098574897030430 (0xBBFC57D5B2E535F5B878F1963B8EA51E)
Complete name : E:Rjev.2019.BDRip.720p.mkv
Format : Matroska
Format version : Version 4
File size : 4.77 GiB
Duration : 1 h 58 min
Overall bit rate : 5 773 kb/s
Encoded date : UTC 2020-07-06 00:44:44
Writing application : mkvmerge v40.0.0 ('Old Town Road + Pony') 64-bit
Writing library : libebml v1.3.9 + libmatroska v1.5.2
Cover : Yes
Attachments : cover.jpg

Video
ID : 1
Format : AVC
Format/Info : Advanced Video Codec
Format profile : High@L4.1
Format settings : CABAC / 12 Ref Frames
Format settings, CABAC : Yes
Format settings, Reference frames : 12 frames
Codec ID : V_MPEG4/ISO/AVC
Duration : 1 h 58 min
Bit rate : 5 130 kb/s
Width : 1 280 pixels
Height : 536 pixels
Display aspect ratio : 2.40:1
Frame rate mode : Constant
Frame rate : 24.000 FPS
Color space : YUV
Chroma subsampling : 4:2:0
Bit depth : 8 bits
Scan type : Progressive
Bits/(Pixel*Frame) : 0.312
Stream size : 4.24 GiB (89%)
Writing library : x264 core 142 r2431+42 c69a006 tMod [8-bit@all X86_64]
Encoding settings : cabac=1 / ref=12 / deblock=1:-2:-2 / analyse=0x3:0x133 / me=umh / subme=10 / psy=1 / fade_compensate=0.00 / psy_rd=1.00:0.00 / mixed_ref=1 / me_range=32 / chroma_me=1 / trellis=2 / 8x8dct=1 / cqm=0 / deadzone=21,11 / fast_pskip=0 / chroma_qp_offset=-2 / threads=24 / lookahead_threads=4 / sliced_threads=0 / nr=0 / decimate=0 / interlaced=0 / bluray_compat=0 / constrained_intra=0 / fgo=0 / bframes=9 / b_pyramid=2 / b_adapt=2 / b_bias=0 / direct=3 / weightb=1 / open_gop=0 / weightp=2 / keyint=240 / keyint_min=24 / scenecut=40 / intra_refresh=0 / rc_lookahead=50 / rc=crf / mbtree=0 / crf=16.4000 / qcomp=0.60 / qpmin=0:0:0 / qpmax=51:51:51 / qpstep=4 / vbv_maxrate=50000 / vbv_bufsize=62500 / crf_max=0.0 / nal_hrd=none / filler=0 / ip_ratio=1.40 / pb_ratio=1.30 / aq=3:0.80 / aq-sensitivity=10.00 / aq-factor=1.00:1.00:1.00 / aq2=0 / aq3=0
Language : English
Default : Yes
Forced : No

Audio
ID : 2
Format : AC-3
Format/Info : Audio Coding 3
Commercial name : Dolby Digital
Codec ID : A_AC3
Duration : 1 h 58 min
Bit rate mode : Constant
Bit rate : 640 kb/s
Channel(s) : 6 channels
Channel layout : L R C LFE Ls Rs
Sampling rate : 48.0 kHz
Frame rate : 31.250 FPS (1536 SPF)
Compression mode : Lossy
Stream size : 541 MiB (11%)
Language : Russian
Service kind : Complete Main
Default : Yes
Forced : Yes

Menu
00:00:00.000 : ru:Глава 01
00:00:05.417 : ru:Глава 02
00:11:06.208 : ru:Глава 03
00:22:02.250 : ru:Глава 04
00:33:41.792 : ru:Глава 05
00:46:58.292 : ru:Глава 06
01:00:38.500 : ru:Глава 07
01:11:20.500 : ru:Глава 08
01:21:43.167 : ru:Глава 09
01:33:59.042 : ru:Глава 10
01:45:19.250 : ru:Глава 11


Вернуться к началу
 Профиль Отправить личное сообщение  
Ответить с цитатой  
  • Торрент
Автор: Jinta Хэш: ---
Добавлен: 19 фев 2021, 19:51 Приватный: Нет (DHT включён)
Статус: Проверен
Размер: 4.77 ГБ (5 118 067 902 байт)
Изменил:
---
Скачали: 7766 (Раздающих: 2%)
Причина:
---
Здоровье: 100%
Сидеров: 160 Личеров: 6
Скорость раздачи: 0 байт/сек Скорость скачивания: 0 байт/сек
Последний сидер: 17 дней 4 часа 26 минут 45 секунд назад Последний личер: 17 дней 4 часа 26 минут 45 секунд назад
Для скачивания торрента необходимо зарегистрироваться или войти на трекер.
Показать сообщения за:  Поле сортировки  
Начать новую тему Ответить на тему  [ 1 сообщение ] 


Кто сейчас на конференции

Сейчас этот форум просматривают: Bing [Bot] и гости: 1


Вы не можете начинать темы
Вы не можете отвечать на сообщения
Вы не можете редактировать свои сообщения
Вы не можете удалять свои сообщения
Вы не можете добавлять вложения

Найти:
Перейти:  
cron
Создано на основе phpBB® Forum Software © phpBB Group
ppkBB3cker v.2.5 © 2008-2020 @ PPK | Icon Theme by Everaldo.com Design Studio
Русская поддержка phpBB
[ Time : 0.052s | 16 Queries | GZIP : On ]
Ресурс не предоставляет электронные версии произведений, а занимается лишь коллекционированием и каталогизацией ссылок, присылаемых и публикуемых на форуме нашими читателями. Если вы являетесь правообладателем какого-либо представленного материала и не желаете чтобы ссылка на него находилась в нашем каталоге, свяжитесь с нами и мы незамедлительно удалим её. Файлы для обмена на трекере предоставлены пользователями сайта, и администрация не несёт ответственности за их содержание. Просьба не заливать файлы, защищенные авторскими правами, а также файлы нелегального содержания!