Jinta.ru

Полезный софт трекер





Начать новую тему Ответить на тему  [ 1 сообщение ] 
Автор Сообщение
 Заголовок сообщения: Дежа Вю (1989) BDRip 720p от msltel
СообщениеДобавлено: 19 фев 2021, 19:51 
Не в сети
Администратор
Аватара пользователя
Раздал: 3.76 ТБ
Скачал: 718.44 ГБ
Ратио: 1102.921


Зарегистрирован: 30 июл 2016, 22:43
Сообщения: 3435
#777

Название: Дежавю
Оригинальное название: Deja Vu
Год выпуска: 1989
Страна: СССР, Польша
Продолжительность: 01:44:35
Язык: русский
Жанр: комедия, криминал

Режиссер: Юлиуш Махульский

В ролях: Ежи Штур, Владимир Головин (I), Николай Караченцов, Галина Петрова, Олег Шкловский, Василий Мищенко, Лиза Махульска, Всеволод Сафонов, Владимир Белоусов, Виталий Шаповалов, Ашот Хостикян, Виктор Степанов (I), Никита Высоцкий, Виктор Павловский, Эрнест Штейнберг, Павел Новиш, Ян Хенч, Гжегож Хероминьский

О фильме:
1925 год. В Америке сухой закон. Подпольные торговцы спиртным, которые понесли убытки из-за предательства некоего Микк Нича (Микиты Ничипорука), решают ему отомстить и нанимают киллера. В поисках своей жертвы наёмный убийца прибывает из Чикаго в Одессу, где Ничипорук организовал самогонный бизнес. И тут киллер сталкивается с советской реальностью...



Качество: BDRip 720p
Формат: MKV
Видео: MPEG-4 AVC, 6048 Kбит/с, 1196x720, 25 кадр/с
Аудио 1: русский, AC3, 192 kbps, 2 ch, 48 kHz [оригинал + VO на нерусскую речь]
Аудио 2: русский, AC3, 224 kbps, 2 ch, 48 kHz [оригинал + английский]
Субтитры 1: русские (на нерусскую речь)
Субтитры 2: русские
Субтитры 3: польские
Субтитры 4: английские
Главы/чаптеры

Общее
Уникальный идентификатор : 184098637427060629874229405128201100150 (0x8A801B9C54A5C2328B77D5C3169C5B76)
Полное имя : D:VideoДежавю.1989.BDRip 720p msltel.mkv
Формат : Matroska
Версия формата : Version 4
Размер файла : 4,72 Гбайт
Продолжительность : 1 ч. 44 м.
Общий поток : 6 466 Кбит/сек
Название фильма : Rip msltel
Дата кодирования : UTC 2020-07-07 13:42:15
Программа кодирования : mkvmerge v8.2.0 ('World of Adventure') 64bit
Библиотека кодирования : libebml v1.3.1 + libmatroska v1.4.2

Видео
Идентификатор : 1
Формат : AVC
Формат/Информация : Advanced Video Codec
Профиль формата : High@L4.1
Настройки формата : CABAC / 9 Ref Frames
Параметр CABAC формата : Да
Параметр RefFrames формата : 9 кадров
Идентификатор кодека : V_MPEG4/ISO/AVC
Продолжительность : 1 ч. 44 м.
Битрейт : 6 048 Кбит/сек
Ширина : 1 196 пикселей
Высота : 720 пикселей
Соотношение сторон : 5:3
Режим частоты кадров : Постоянный
Частота кадров : 25,000 кадров/сек
Цветовое пространство : YUV
Субдискретизация насыщенности : 4:2:0
Битовая глубина : 8 бит
Тип развёртки : Прогрессивная
Бит/(Пиксели*Кадры) : 0.281
Размер потока : 4,42 Гбайт (94%)
Библиотека кодирования : x264 core 159 r2991 1771b55
Настройки программы : cabac=1 / ref=9 / deblock=1:-2:-2 / analyse=0x3:0x113 / me=umh / subme=11 / psy=1 / psy_rd=1.00:0.15 / mixed_ref=1 / me_range=32 / chroma_me=1 / trellis=2 / 8x8dct=1 / cqm=0 / deadzone=21,11 / fast_pskip=0 / chroma_qp_offset=-3 / threads=6 / lookahead_threads=1 / sliced_threads=0 / nr=0 / decimate=1 / interlaced=0 / bluray_compat=0 / constrained_intra=0 / bframes=6 / b_pyramid=2 / b_adapt=2 / b_bias=0 / direct=1 / weightb=1 / open_gop=0 / weightp=2 / keyint=240 / keyint_min=24 / scenecut=40 / intra_refresh=0 / rc_lookahead=40 / rc=crf / mbtree=1 / crf=16.5 / qcomp=0.60 / qpmin=0 / qpmax=69 / qpstep=4 / vbv_maxrate=50000 / vbv_bufsize=62500 / crf_max=0.0 / nal_hrd=none / filler=0 / ip_ratio=1.40 / aq=1:1.00
Язык : Russian
Default : Да
Forced : Нет

Аудио #1
Идентификатор : 2
Формат : AC-3
Формат/Информация : Audio Coding 3
Коммерческое название : Dolby Digital
Идентификатор кодека : A_AC3
Продолжительность : 1 ч. 44 м.
Вид битрейта : Постоянный
Битрейт : 192 Кбит/сек
Каналы : 2 канала
Channel layout : L R
Частота : 48,0 КГц
Частота кадров : 31,250 кадров/сек (1536 SPF)
Метод сжатия : С потерями
Размер потока : 144 Мбайт (3%)
Заголовок : оригинал + VO на нерусскую речь
Язык : Russian
Service kind : Complete Main
Default : Да
Forced : Нет

Аудио #2
Идентификатор : 3
Формат : AC-3
Формат/Информация : Audio Coding 3
Коммерческое название : Dolby Digital
Идентификатор кодека : A_AC3
Продолжительность : 1 ч. 44 м.
Вид битрейта : Постоянный
Битрейт : 224 Кбит/сек
Каналы : 2 канала
Channel layout : L R
Частота : 48,0 КГц
Частота кадров : 31,250 кадров/сек (1536 SPF)
Метод сжатия : С потерями
Размер потока : 168 Мбайт (3%)
Заголовок : оригинал + английский
Язык : Russian
Service kind : Complete Main
Default : Нет
Forced : Нет

Текст #1
Идентификатор : 4
Формат : UTF-8
Идентификатор кодека : S_TEXT/UTF8
Идентификатор кодека/Информация : UTF-8 Plain Text
Продолжительность : 1 ч. 39 м.
Битрейт : 14 бит/сек
Count of elements : 217
Размер потока : 10,6 Кбайт (0%)
Заголовок : русские на нерусскую речь
Язык : Russian
Default : Да
Forced : Да

Текст #2
Идентификатор : 5
Формат : UTF-8
Идентификатор кодека : S_TEXT/UTF8
Идентификатор кодека/Информация : UTF-8 Plain Text
Продолжительность : 1 ч. 40 м.
Битрейт : 90 бит/сек
Count of elements : 965
Размер потока : 66,1 Кбайт (0%)
Заголовок : русские
Язык : Russian
Default : Нет
Forced : Нет

Текст #3
Идентификатор : 6
Формат : UTF-8
Идентификатор кодека : S_TEXT/UTF8
Идентификатор кодека/Информация : UTF-8 Plain Text
Продолжительность : 1 ч. 40 м.
Битрейт : 49 бит/сек
Count of elements : 856
Размер потока : 36,3 Кбайт (0%)
Заголовок : польские
Язык : Polish
Default : Нет
Forced : Нет

Текст #4
Идентификатор : 7
Формат : UTF-8
Идентификатор кодека : S_TEXT/UTF8
Идентификатор кодека/Информация : UTF-8 Plain Text
Продолжительность : 1 ч. 39 м.
Битрейт : 45 бит/сек
Count of elements : 764
Размер потока : 33,3 Кбайт (0%)
Заголовок : английские
Язык : English
Default : Нет
Forced : Нет

Меню
00:00:00.000 : en:01
00:12:23.840 : en:02
00:19:35.920 : en:03
00:30:36.160 : en:04
00:41:07.840 : en:05
00:53:19.760 : en:06
01:04:25.560 : en:07
01:14:45.600 : en:08
01:24:44.800 : en:09
01:35:03.640 : en:10
01:39:17.560 : en:11
01:43:32.960 : en:12




Вернуться к началу
 Профиль Отправить личное сообщение  
Ответить с цитатой  
  • Торрент
Автор: Jinta Хэш: ---
Добавлен: 19 фев 2021, 19:51 Приватный: Нет (DHT включён)
Статус: Проверен
Размер: 4.72 ГБ (5 072 220 523 байт)
Изменил:
---
Скачали: 372 (Раздающих: 1%)
Причина:
---
Здоровье: 100%
Сидеров: 4 Личеров: 0
Скорость раздачи: 0 байт/сек Скорость скачивания: 0 байт/сек
Последний сидер: 17 дней 4 часа 13 минут 53 секунды назад Последний личер: Нет
Для скачивания торрента необходимо зарегистрироваться или войти на трекер.
Показать сообщения за:  Поле сортировки  
Начать новую тему Ответить на тему  [ 1 сообщение ] 


Кто сейчас на конференции

Сейчас этот форум просматривают: нет зарегистрированных пользователей и гости: 3


Вы не можете начинать темы
Вы не можете отвечать на сообщения
Вы не можете редактировать свои сообщения
Вы не можете удалять свои сообщения
Вы не можете добавлять вложения

Найти:
Перейти:  
cron
Создано на основе phpBB® Forum Software © phpBB Group
ppkBB3cker v.2.5 © 2008-2020 @ PPK | Icon Theme by Everaldo.com Design Studio
Русская поддержка phpBB
[ Time : 0.052s | 15 Queries | GZIP : On ]
Ресурс не предоставляет электронные версии произведений, а занимается лишь коллекционированием и каталогизацией ссылок, присылаемых и публикуемых на форуме нашими читателями. Если вы являетесь правообладателем какого-либо представленного материала и не желаете чтобы ссылка на него находилась в нашем каталоге, свяжитесь с нами и мы незамедлительно удалим её. Файлы для обмена на трекере предоставлены пользователями сайта, и администрация не несёт ответственности за их содержание. Просьба не заливать файлы, защищенные авторскими правами, а также файлы нелегального содержания!