Jinta.ru

Полезный софт трекер





Начать новую тему Ответить на тему  [ 1 сообщение ] 
Автор Сообщение
СообщениеДобавлено: 19 фев 2021, 19:51 
Не в сети
Администратор
Аватара пользователя
Раздал: 3.76 ТБ
Скачал: 718.44 ГБ
Ратио: 1102.921


Зарегистрирован: 30 июл 2016, 22:43
Сообщения: 3435
#777

Информация о фильме
Название: Кубанские казаки
Год выхода: 1949
Страна: СССР
Студия: Мосфильм
Продолжительность: 01:48:54
Перевод: Не требуется | Лицензия Blu-ray RUS
Жанр: Мюзикл, комедия

Режиссер: Иван Пырьев

В ролях: Сергей Лукьянов, Марина Ладынина, Александр Хвыля, Владлен Давыдов, Владимир Володин, Екатерина Савинова, Андрей Петров, Владимир Дорофеев, Елена Савицкая, Валентина Телегина

О фильме:
На колхозной ярмарке встречаются представители двух процветающих кубанских колхозов — Галина Пересветова и Гордей Ворон. Они любят друг друга, но скрывают свои чувства, ведь Галина и Гордей — давние конкуренты. Они соревнуются в трудовых подвигах, и главное для каждого из них — вывести свой колхоз на первое место..



Файл
Качество: BDRip 720p
Исходник: KUBANSKIE_KOZAKI_1949_RUS_BLUEBIRD
Формат: MKV
Кодек: MPEG-4 AVC
Видео: 992x720 (1,378:1), 23,976 fps, MPEG-4 AVC, 6320 Kbps avg, 0.369 bit/pixel
Аудио: AC3, 48 kHz, 2 ch, ~640.00 kbps avg | русский | Blu-ray RUS
Субтитры: Отсутствуют

Общее
Уникальный идентификатор : 210711300023464754118438709614088945588 (0x9E85852E07665EB7E04EBA4056A9FFB4)
Полное имя : Kubanskie.kazaki.1949.720p.BluRay.DD2.0.x264.mkv
Формат : Matroska
Версия формата : Version 4
Размер файла : 5,30 Гбайт
Продолжительность : 1 ч. 48 м.
Общий поток : 6 962 Кбит/сек
Название фильма : Кубанские казаки (1949)
Дата кодирования : UTC 2020-07-09 10:10:31
Программа кодирования : mkvmerge v47.0.0 ('Black Flag') 64-bit
Библиотека кодирования : libebml v1.3.10 + libmatroska v1.5.2
Обложка : Yes
Attachments : cover.jpg

Видео
Идентификатор : 1
Формат : AVC
Формат/Информация : Advanced Video Codec
Профиль формата : High@L4.1
Настройки формата : CABAC / 9 Ref Frames
Параметр CABAC формата : Да
Параметр RefFrames формата : 9 кадров
Идентификатор кодека : V_MPEG4/ISO/AVC
Продолжительность : 1 ч. 48 м.
Битрейт : 6 320 Кбит/сек
Ширина : 992 пикселя
Высота : 720 пикселей
Соотношение сторон : 1,378
Режим частоты кадров : Постоянный
Частота кадров : 23,976 (24000/1001) кадра/сек
Цветовое пространство : YUV
Субдискретизация насыщенности : 4:2:0
Битовая глубина : 8 бит
Тип развёртки : Прогрессивная
Бит/(Пиксели*Кадры) : 0.369
Размер потока : 4,81 Гбайт (91%)
Заголовок : #stillet
Библиотека кодирования : x264 core 152 r2851bm ba24899
Настройки программы : cabac=1 / ref=9 / deblock=1:-3:-3 / analyse=0x3:0x113 / me=umh / subme=10 / psy=1 / psy_rd=1.00:0.15 / mixed_ref=1 / me_range=32 / chroma_me=1 / trellis=2 / 8x8dct=1 / cqm=0 / deadzone=21,11 / fast_pskip=0 / chroma_qp_offset=-3 / threads=12 / lookahead_threads=3 / sliced_threads=0 / nr=0 / decimate=0 / interlaced=0 / bluray_compat=0 / constrained_intra=0 / bframes=8 / b_pyramid=2 / b_adapt=2 / b_bias=0 / direct=3 / weightb=1 / open_gop=0 / weightp=2 / keyint=240 / keyint_min=23 / scenecut=40 / intra_refresh=0 / rc_lookahead=40 / rc=2pass / mbtree=0 / bitrate=6320 / ratetol=1.0 / qcomp=0.60 / qpmin=0 / qpmax=69 / qpstep=4 / cplxblur=20.0 / qblur=0.5 / vbv_maxrate=50000 / vbv_bufsize=62500 / nal_hrd=none / filler=0 / ip_ratio=1.40 / pb_ratio=1.30 / aq=1:1.00
Язык : English
Default : Да
Forced : Нет

Аудио
Идентификатор : 2
Формат : AC-3
Формат/Информация : Audio Coding 3
Коммерческое название : Dolby Digital
Идентификатор кодека : A_AC3
Продолжительность : 1 ч. 48 м.
Вид битрейта : Постоянный
Битрейт : 640 Кбит/сек
Каналы : 2 канала
Channel layout : L R
Частота : 48,0 КГц
Частота кадров : 31,250 кадров/сек (1536 SPF)
Метод сжатия : С потерями
Размер потока : 499 Мбайт (9%)
Заголовок : Blu-ray RUS
Язык : Russian
Default : Да
Forced : Нет


Вернуться к началу
 Профиль Отправить личное сообщение  
Ответить с цитатой  
  • Торрент
Автор: Jinta Хэш: ---
Добавлен: 19 фев 2021, 19:51 Приватный: Нет (DHT включён)
Статус: Проверен
Размер: 5.3 ГБ (5 686 540 086 байт)
Изменил:
---
Скачали: 218 (Раздающих: 3%)
Причина:
---
Здоровье: 100%
Сидеров: 6 Личеров: 4
Скорость раздачи: 0 байт/сек Скорость скачивания: 0 байт/сек
Последний сидер: 17 дней 4 часа 7 минут 31 секунду назад Последний личер: 17 дней 4 часа 7 минут 31 секунду назад
Для скачивания торрента необходимо зарегистрироваться или войти на трекер.
Показать сообщения за:  Поле сортировки  
Начать новую тему Ответить на тему  [ 1 сообщение ] 


Кто сейчас на конференции

Сейчас этот форум просматривают: нет зарегистрированных пользователей и гости: 3


Вы не можете начинать темы
Вы не можете отвечать на сообщения
Вы не можете редактировать свои сообщения
Вы не можете удалять свои сообщения
Вы не можете добавлять вложения

Найти:
Перейти:  
cron
Создано на основе phpBB® Forum Software © phpBB Group
ppkBB3cker v.2.5 © 2008-2020 @ PPK | Icon Theme by Everaldo.com Design Studio
Русская поддержка phpBB
[ Time : 0.054s | 15 Queries | GZIP : On ]
Ресурс не предоставляет электронные версии произведений, а занимается лишь коллекционированием и каталогизацией ссылок, присылаемых и публикуемых на форуме нашими читателями. Если вы являетесь правообладателем какого-либо представленного материала и не желаете чтобы ссылка на него находилась в нашем каталоге, свяжитесь с нами и мы незамедлительно удалим её. Файлы для обмена на трекере предоставлены пользователями сайта, и администрация не несёт ответственности за их содержание. Просьба не заливать файлы, защищенные авторскими правами, а также файлы нелегального содержания!