Jinta.ru

Полезный софт трекер





Начать новую тему Ответить на тему  [ 1 сообщение ] 
Автор Сообщение
СообщениеДобавлено: 19 фев 2021, 19:51 
Не в сети
Администратор
Аватара пользователя
Раздал: 3.76 ТБ
Скачал: 718.44 ГБ
Ратио: 1102.921


Зарегистрирован: 30 июл 2016, 22:43
Сообщения: 3435
#777
Информация о фильме
Название: Битва
Год выхода: 2019
Жанр: Драма
Режиссер: Анар Аббасов
В ролях: Риналь Мухаметов, Анна Исаева, Екатерина Кукуй, Илья Антоненко, Игорь Миркурбанов, Виталий Коваленко, Анфиса Семина, Алла Еминцева, Артем Карпов, Дмитрий Хасис



О фильме: Стрит-дансер Антон делает стремительную карьеру – его команда побеждает на всех батлах, он признанный хореограф и все его будущее связано с танцем. Однако несчастный случай рушит все планы – Антон лишается слуха, а с ним и всех надежд. Оказавшись в непривычном мире тишины, Антон постепенно понимает, что это не конец. Страсть к танцу, воля к победе и любовь к жизни подсказывают ему новый путь к заветной мечте. И его главная битва еще впереди.

Страна: Россия
Студия: ТПО «Рок»
Продолжительность: 01:25:14
Язык: Русский | Лицензия (Blu-Ray GER Transfer)

Качество: BDRip 720p
Видео: MPEG-4 AVC, 1280x538, 7200 Kbit/s, 24 fps
Аудио #01: 48 kHz, DTS, 5.1, 1510 Kbps | RUS |
Аудио #02: 48 kHz, AC3, 5.1, 640 Kbps | RUS |
Субтитры: Отсутствуют



General
Unique ID : 287598820438662784636360435793995687926 (0xD85D849D4ECD4C30D4680013D5E2E7F6)
Complete name : E:Video111Bitva.2019.BDRip.720p.mkv
Format : Matroska
Format version : Version 4
File size : 5.56 GiB
Duration : 1 h 25 min
Overall bit rate : 9 343 kb/s
Encoded date : UTC 2020-07-11 05:41:45
Writing application : mkvmerge v40.0.0 ('Old Town Road + Pony') 64-bit
Writing library : libebml v1.3.9 + libmatroska v1.5.2

Video
ID : 1
Format : AVC
Format/Info : Advanced Video Codec
Format profile : High@L4.1
Format settings : CABAC / 12 Ref Frames
Format settings, CABAC : Yes
Format settings, Reference frames : 12 frames
Codec ID : V_MPEG4/ISO/AVC
Duration : 1 h 25 min
Bit rate : 7 200 kb/s
Width : 1 280 pixels
Height : 538 pixels
Display aspect ratio : 2.40:1
Frame rate mode : Constant
Frame rate : 24.000 FPS
Color space : YUV
Chroma subsampling : 4:2:0
Bit depth : 8 bits
Scan type : Progressive
Bits/(Pixel*Frame) : 0.436
Stream size : 4.28 GiB (77%)
Writing library : x264 core 142 r2431+42 c69a006 tMod [8-bit@all X86_64]
Encoding settings : cabac=1 / ref=12 / deblock=1:-2:-2 / analyse=0x3:0x133 / me=umh / subme=10 / psy=1 / fade_compensate=0.00 / psy_rd=1.00:0.00 / mixed_ref=1 / me_range=32 / chroma_me=1 / trellis=2 / 8x8dct=1 / cqm=0 / deadzone=21,11 / fast_pskip=0 / chroma_qp_offset=-2 / threads=24 / lookahead_threads=4 / sliced_threads=0 / nr=0 / decimate=0 / interlaced=0 / bluray_compat=0 / constrained_intra=0 / fgo=0 / bframes=9 / b_pyramid=2 / b_adapt=2 / b_bias=0 / direct=3 / weightb=1 / open_gop=0 / weightp=2 / keyint=240 / keyint_min=24 / scenecut=40 / intra_refresh=0 / rc_lookahead=50 / rc=2pass / mbtree=0 / bitrate=7200 / ratetol=1.0 / qcomp=0.60 / qpmin=0:0:0 / qpmax=51:51:51 / qpstep=4 / cplxblur=20.0 / qblur=0.5 / vbv_maxrate=50000 / vbv_bufsize=62500 / nal_hrd=none / filler=0 / ip_ratio=1.40 / pb_ratio=1.30 / aq=3:0.80 / aq-sensitivity=10.00 / aq-factor=1.00:1.00:1.00 / aq2=0 / aq3=0
Language : Russian
Default : Yes
Forced : No

Audio #1
ID : 2
Format : DTS
Format/Info : Digital Theater Systems
Codec ID : A_DTS
Duration : 1 h 25 min
Bit rate mode : Constant
Bit rate : 1 509 kb/s
Channel(s) : 6 channels
Channel layout : C L R Ls Rs LFE
Sampling rate : 48.0 kHz
Frame rate : 93.750 FPS (512 SPF)
Bit depth : 24 bits
Compression mode : Lossy
Stream size : 920 MiB (16%)
Language : Russian
Default : Yes
Forced : Yes

Audio #2
ID : 3
Format : AC-3
Format/Info : Audio Coding 3
Commercial name : Dolby Digital
Codec ID : A_AC3
Duration : 1 h 25 min
Bit rate mode : Constant
Bit rate : 640 kb/s
Channel(s) : 6 channels
Channel layout : L R C LFE Ls Rs
Sampling rate : 48.0 kHz
Frame rate : 31.250 FPS (1536 SPF)
Compression mode : Lossy
Stream size : 390 MiB (7%)
Language : Russian
Service kind : Complete Main
Default : No
Forced : No

Menu
00:00:00.000 : ru:Глава 01
00:02:13.500 : ru:Глава 02
00:08:21.917 : ru:Глава 03
00:12:22.000 : ru:Глава 04
00:16:20.708 : ru:Глава 05
00:21:02.167 : ru:Глава 06
00:26:06.167 : ru:Глава 07
00:30:59.958 : ru:Глава 08
00:35:59.833 : ru:Глава 09
00:40:23.000 : ru:Глава 10
00:46:49.708 : ru:Глава 11
00:51:54.625 : ru:Глава 12
00:58:54.667 : ru:Глава 13
01:07:40.083 : ru:Глава 14
01:13:38.083 : ru:Глава 15
01:18:21.458 : ru:Глава 16


Вернуться к началу
 Профиль Отправить личное сообщение  
Ответить с цитатой  
  • Торрент
Автор: Jinta Хэш: ---
Добавлен: 19 фев 2021, 19:51 Приватный: Нет (DHT включён)
Статус: Проверен
Размер: 5.56 ГБ (5 972 357 987 байт)
Изменил:
---
Скачали: 214 (Раздающих: 6%)
Причина:
---
Здоровье: 100%
Сидеров: 13 Личеров: 0
Скорость раздачи: 0 байт/сек Скорость скачивания: 0 байт/сек
Последний сидер: 17 дней 3 часа 54 минуты 16 секунд назад Последний личер: Нет
Для скачивания торрента необходимо зарегистрироваться или войти на трекер.
Показать сообщения за:  Поле сортировки  
Начать новую тему Ответить на тему  [ 1 сообщение ] 


Кто сейчас на конференции

Сейчас этот форум просматривают: нет зарегистрированных пользователей и гости: 3


Вы не можете начинать темы
Вы не можете отвечать на сообщения
Вы не можете редактировать свои сообщения
Вы не можете удалять свои сообщения
Вы не можете добавлять вложения

Найти:
Перейти:  
cron
Создано на основе phpBB® Forum Software © phpBB Group
ppkBB3cker v.2.5 © 2008-2020 @ PPK | Icon Theme by Everaldo.com Design Studio
Русская поддержка phpBB
[ Time : 0.052s | 15 Queries | GZIP : On ]
Ресурс не предоставляет электронные версии произведений, а занимается лишь коллекционированием и каталогизацией ссылок, присылаемых и публикуемых на форуме нашими читателями. Если вы являетесь правообладателем какого-либо представленного материала и не желаете чтобы ссылка на него находилась в нашем каталоге, свяжитесь с нами и мы незамедлительно удалим её. Файлы для обмена на трекере предоставлены пользователями сайта, и администрация не несёт ответственности за их содержание. Просьба не заливать файлы, защищенные авторскими правами, а также файлы нелегального содержания!