Jinta.ru

Полезный софт трекер





Начать новую тему Ответить на тему  [ 1 сообщение ] 
Автор Сообщение
 Заголовок сообщения: Я - Куба / Soy Cuba (1964) HDTVRip 720p от New-Team
СообщениеДобавлено: 19 фев 2021, 19:51 
Не в сети
Администратор
Аватара пользователя
Раздал: 3.76 ТБ
Скачал: 718.44 ГБ
Ратио: 1102.921


Зарегистрирован: 30 июл 2016, 22:43
Сообщения: 3435
#777

Год выпуска: 1964
Страна: СССР, Куба
Производство: МОСФИЛЬМ ИКАИК (Куба)
Продолжительность: 02:21:21
Перевод: Не требуется
Cубтитры: нет
Оригинальная аудиодорожка: русский
Жанр: драма, военный, история

Режиссер: Михаил Калатозов

В ролях:
Серхио Коррьери, Сальвадор Вуд, Хосе Галлардо, Рауль Гарсия, Лус Мария Кольясо, Жан Буиз, Альберто Морган, Силия Родригес, Фаусто Мирабль, Роберто Гарсиа Йорк, Мария де ла Мерседес Диэс, Барбара Домингес, Исис дель Монте, Луиса Мария Хименес Родригес, Марио Гонзалез Брош, Тони Лопес, Хектор Кастанеда, Розендо Ламадрис, Роберто Виллар, Роберто Кабрера, Альфредо Авила, Хосе Эспиноза, Изабель Морено...

Об актёрах подробней

Описание:
Фильм посвящён революционным событиям на Кубе.



Источник: HDTV 1080i
Качество видео: HDTVRip 720p
Формат видео: MKV
Видео: 960x720 (4:3), 24,000 кадров/сек, H264 ~ 2746 kbps avg, 0.166 bit/pixel
Аудио: 48 kHz, Dolby Digital AC3 2.0, 192 kbps

Общее
Полное имя : YA–Kuba.1964.HDTVRip720p_[New-team]_by_AVP_Studio.mkv
Формат : Matroska
Версия формата : Version 2
Размер файла : 2,91 Гбайт
Продолжительность : 2 ч. 21 м.
Общий поток : 2946 Кбит/сек
Дата кодирования : UTC 2020-07-10 22:12:24
Программа кодирования : mkvmerge v6.9.1 ('Blue Panther') 32bit built on Apr 18 2014 18:15:44
Библиотека кодирования : libebml v1.3.0 + libmatroska v1.4.1

Видео
Идентификатор : 1
Формат : AVC
Формат/Информация : Advanced Video Codec
Профиль формата : High@L4.1
Настройки формата : CABAC / 8 Ref Frames
Параметр CABAC формата : Да
Параметр RefFrames формата : 8 кадров
Идентификатор кодека : V_MPEG4/ISO/AVC
Продолжительность : 2 ч. 21 м.
Битрейт : 2746 Кбит/сек
Ширина : 960 пикселей
Высота : 720 пикселей
Соотношение сторон : 4:3
Режим частоты кадров : Постоянный
Частота кадров : 24,000 кадра/сек
Цветовое пространство : YUV
Субдискретизация насыщенности : 4:2:0
Битовая глубина : 8 бит
Тип развёртки : Прогрессивная
Бит/(Пиксели*Кадры) : 0.166
Размер потока : 2,66 Гбайт (91%)
Библиотека кодирования : x264 core 160 r3000 33f9e14
Настройки программы : cabac=1 / ref=8 / deblock=1:-3:-3 / analyse=0x3:0x133 / me=umh / subme=10 / psy=1 / psy_rd=1.00:0.00 / mixed_ref=1 / me_range=32 / chroma_me=1 / trellis=2 / 8x8dct=1 / cqm=0 / deadzone=21,11 / fast_pskip=1 / chroma_qp_offset=-2 / threads=6 / lookahead_threads=1 / sliced_threads=0 / nr=0 / decimate=0 / interlaced=0 / bluray_compat=0 / constrained_intra=0 / bframes=8 / b_pyramid=2 / b_adapt=2 / b_bias=0 / direct=3 / weightb=1 / open_gop=0 / weightp=2 / keyint=240 / keyint_min=24 / scenecut=40 / intra_refresh=0 / rc=2pass / mbtree=0 / bitrate=2746 / ratetol=1.0 / qcomp=0.60 / qpmin=0 / qpmax=69 / qpstep=4 / cplxblur=20.0 / qblur=0.5 / ip_ratio=1.40 / pb_ratio=1.30 / aq=1:1.00
Default : Да
Forced : Нет

Аудио
Идентификатор : 2
Формат : AC-3
Формат/Информация : Audio Coding 3
Коммерческое название : Dolby Digital
Идентификатор кодека : A_AC3
Продолжительность : 2 ч. 21 м.
Вид битрейта : Постоянный
Битрейт : 192 Кбит/сек
Каналы : 2 канала
ChannelLayout : L R
Частота : 48,0 КГц
Частота кадров : 31,250 кадров/сек (1536 SPF)
Метод сжатия : С потерями
Размер потока : 194 Мбайт (7%)
Default : Да
Forced : Нет




Вернуться к началу
 Профиль Отправить личное сообщение  
Ответить с цитатой  
  • Торрент
Автор: Jinta Хэш: ---
Добавлен: 19 фев 2021, 19:51 Приватный: Нет (DHT включён)
Статус: Проверен
Размер: 2.91 ГБ (3 123 260 410 байт)
Изменил:
---
Скачали: 226 (Раздающих: 10%)
Причина:
---
Здоровье: 100%
Сидеров: 23 Личеров: 0
Скорость раздачи: 0 байт/сек Скорость скачивания: 0 байт/сек
Последний сидер: 17 дней 3 часа 38 минут 1 секунду назад Последний личер: Нет
Для скачивания торрента необходимо зарегистрироваться или войти на трекер.
Показать сообщения за:  Поле сортировки  
Начать новую тему Ответить на тему  [ 1 сообщение ] 


Кто сейчас на конференции

Сейчас этот форум просматривают: нет зарегистрированных пользователей и гости: 1


Вы не можете начинать темы
Вы не можете отвечать на сообщения
Вы не можете редактировать свои сообщения
Вы не можете удалять свои сообщения
Вы не можете добавлять вложения

Найти:
Перейти:  
cron
Создано на основе phpBB® Forum Software © phpBB Group
ppkBB3cker v.2.5 © 2008-2020 @ PPK | Icon Theme by Everaldo.com Design Studio
Русская поддержка phpBB
[ Time : 0.050s | 13 Queries | GZIP : On ]
Ресурс не предоставляет электронные версии произведений, а занимается лишь коллекционированием и каталогизацией ссылок, присылаемых и публикуемых на форуме нашими читателями. Если вы являетесь правообладателем какого-либо представленного материала и не желаете чтобы ссылка на него находилась в нашем каталоге, свяжитесь с нами и мы незамедлительно удалим её. Файлы для обмена на трекере предоставлены пользователями сайта, и администрация не несёт ответственности за их содержание. Просьба не заливать файлы, защищенные авторскими правами, а также файлы нелегального содержания!