Jinta.ru

Полезный софт трекер





Начать новую тему Ответить на тему  [ 1 сообщение ] 
Автор Сообщение
СообщениеДобавлено: 27 апр 2021, 13:33 
Не в сети
Релизер
Аватара пользователя
Раздал: 128.22 ГБ
Скачал: 82.88 МБ
Ратио: None.


Зарегистрирован: 22 май 2018, 22:33
Сообщения: 538
Виртуоз / The Virtuoso


#777

Год выпуска: 2021
Страна / студия: США, Nazz Productions, Pelican Films
Продолжительность: 01:49:41
Перевод: Любительский (многоголосый) | AlphaProject
Жанр: Боевик, триллер, криминал

Режиссер: Ник Стаглиано

В ролях: Энсон Маунт, Энтони Хопкинс, Эбби Корниш, Диора Бэрд, Эдди Марсан, Дэвид Морс, Ричард Брэйк, Крис Перфетти, Блэйз Корригэн, Дженна Хелльмут

О фильме:
Одинокий незнакомец должен выследить и убить наемного убийцу, чтобы погасить долг. Но единственная информация, которую он получил, — это время и место, где найти свою добычу — 5 вечера в деревенской закусочной. Ни имени, ни описания, ничего. Когда убийца появляется на месте, есть несколько возможных целей, включая окружного шерифа. Подвергая опасности свою жизнь, убийца отправляется на охоту, чтобы найти киллера и выполнить свою миссию. Однако встреча с местной женщиной угрожает сорвать его план.




Без рекламы!

Качество: BDRip 1080p
Видео: MPEG-4 AVC, 18.3 Mбит/с, 1920x804
Аудио 1: AC3, 2 ch, 256 Кбит/с | RUS | Tnx. KinoPub
Аудио 2: DTS, 6 ch, 1509 Кбит/с | ENG
Субтитры: Английские


Общее
Уникальный идентификатор : 34389590975241545441949229902193625774 (0x19DF31BDDEDC5FBABFC0212911520AAE)
Полное имя : C:DownloadsВиртуоз_(2021)_BDRip_(1080p).mkv
Формат : Matroska
Версия формата : Version 4
Размер файла : 15,4 Гбайт
Продолжительность : 1 ч. 49 м.
Общий поток : 20,1 Мбит/сек
Название фильма : Виртуоз_(2021)_BDRip_(1080p)
Дата кодирования : UTC 2021-04-26 19:51:38
Программа кодирования : mkvmerge v53.0.0 ('Fool's Gold') 64-bit
Библиотека кодирования : libebml v1.4.1 + libmatroska v1.6.2

Видео
Идентификатор : 1
Формат : AVC
Формат/Информация : Advanced Video Codec
Профиль формата : High@L4.1
Настройки формата : CABAC / 5 Ref Frames
Параметр CABAC формата : Да
Параметр RefFrames формата : 5 кадров
Идентификатор кодека : V_MPEG4/ISO/AVC
Продолжительность : 1 ч. 49 м.
Битрейт : 18,3 Мбит/сек
Ширина : 1 920 пикселей
Высота : 804 пикселя
Соотношение сторон : 2,40:1
Режим частоты кадров : Постоянный
Частота кадров : 23,976 (24000/1001) кадра/сек
Цветовое пространство : YUV
Субдискретизация насыщенности : 4:2:0
Битовая глубина : 8 бит
Тип развёртки : Прогрессивная
Бит/(Пиксели*Кадры) : 0.495
Размер потока : 14,0 Гбайт (91%)
Библиотека кодирования : x264 core 157 r2938 2b00a84 TnP@MTeam Mod
Настройки программы : cabac=1 / ref=5 / deblock=1:-3:-3 / analyse=0x3:0x133 / me=umh / subme=10 / psy=1 / psy_rd=1.05:0.00 / mixed_ref=1 / me_range=32 / chroma_me=1 / trellis=2 / 8x8dct=1 / cqm=0 / deadzone=21,11 / fast_pskip=0 / chroma_qp_offset=-2 / threads=12 / lookahead_threads=2 / sliced_threads=0 / nr=0 / decimate=0 / interlaced=0 / bluray_compat=0 / constrained_intra=0 / bframes=8 / b_pyramid=2 / b_adapt=2 / b_bias=0 / direct=3 / weightb=1 / open_gop=0 / weightp=2 / keyint=250 / keyint_min=24 / scenecut=40 / intra_refresh=0 / rc_lookahead=250 / rc=crf / mbtree=0 / crf=16.8 / qcomp=0.60 / qpmin=0 / qpmax=69 / qpstep=4 / vbv_maxrate=62500 / vbv_bufsize=78125 / crf_max=0.0 / nal_hrd=none / filler=0 / ip_ratio=1.30 / pb_ratio=1.20 / aq=3:0.80
Язык : English
Default : Да
Forced : Нет
Цветовой диапазон : Limited
Основные цвета : BT.709
Коэффициенты матрицы : BT.709

Аудио #1
Идентификатор : 2
Формат : AC-3
Формат/Информация : Audio Coding 3
Коммерческое название : Dolby Digital
Идентификатор кодека : A_AC3
Продолжительность : 1 ч. 49 м.
Вид битрейта : Постоянный
Битрейт : 256 Кбит/сек
Каналы : 2 канала
Channel layout : L R
Частота : 48,0 КГц
Частота кадров : 31,250 кадров/сек (1536 SPF)
Метод сжатия : С потерями
Размер потока : 201 Мбайт (1%)
Заголовок : (MVO) AlphaProject | KinoPub
Язык : Russian
Service kind : Complete Main
Default : Да
Forced : Нет

Аудио #2
Идентификатор : 3
Формат : DTS
Формат/Информация : Digital Theater Systems
Идентификатор кодека : A_DTS
Продолжительность : 1 ч. 49 м.
Вид битрейта : Постоянный
Битрейт : 1 509 Кбит/сек
Каналы : 6 каналов
Channel layout : C L R Ls Rs LFE
Частота : 48,0 КГц
Частота кадров : 93,750 кадра/сек (512 SPF)
Битовая глубина : 24 бит
Метод сжатия : С потерями
Размер потока : 1,16 Гбайт (8%)
Язык : English
Default : Нет
Forced : Нет

Текст
Идентификатор : 4
Формат : UTF-8
Идентификатор кодека : S_TEXT/UTF8
Идентификатор кодека/Информация : UTF-8 Plain Text
Продолжительность : 1 ч. 42 м.
Битрейт : 35 бит/сек
Count of elements : 876
Размер потока : 26,4 Кбайт (0%)
Заголовок : SRT
Язык : English
Default : Нет
Forced : Нет

Меню
00:00:00.000 : Chapter 01
00:04:04.411 : Chapter 02
00:09:55.220 : Chapter 03
00:14:36.709 : Chapter 04
00:23:39.918 : Chapter 05
00:29:31.395 : Chapter 06
00:37:21.156 : Chapter 07
00:43:00.870 : Chapter 08
00:51:23.956 : Chapter 09
00:57:42.793 : Chapter 10
01:04:54.641 : Chapter 11
01:14:02.855 : Chapter 12
01:19:25.678 : Chapter 13
01:23:48.941 : Chapter 14
01:29:17.018 : Chapter 15
01:42:37.026 : Chapter 16


Вернуться к началу
 Профиль Отправить личное сообщение  
Ответить с цитатой  
  • Торрент
Автор: Saturn Хэш: ---
Добавлен: 27 апр 2021, 13:33 Приватный: Нет (DHT включён)
Статус: Проверен
Размер: 15.4 ГБ (16 538 666 792 байт)
Изменил:
---
Скачали: 3434 (Раздающих: 26%)
Причина:
---
Здоровье: 89%
Сидеров: 896 Личеров: 1004
Скорость раздачи: 0 байт/сек Скорость скачивания: 0 байт/сек
Последний сидер: 3 дня 8 часов 43 минуты 26 секунд назад Последний личер: 3 дня 8 часов 43 минуты 26 секунд назад
Для скачивания торрента необходимо зарегистрироваться или войти на трекер.
Показать сообщения за:  Поле сортировки  
Начать новую тему Ответить на тему  [ 1 сообщение ] 


Кто сейчас на конференции

Сейчас этот форум просматривают: нет зарегистрированных пользователей и гости: 1


Вы не можете начинать темы
Вы не можете отвечать на сообщения
Вы не можете редактировать свои сообщения
Вы не можете удалять свои сообщения
Вы не можете добавлять вложения

Найти:
Перейти:  
cron
Создано на основе phpBB® Forum Software © phpBB Group
ppkBB3cker v.2.5 © 2008-2021 @ PPK | Icon Theme by Everaldo.com Design Studio
Русская поддержка phpBB
[ Time : 0.046s | 15 Queries | GZIP : On ]
Ресурс не предоставляет электронные версии произведений, а занимается лишь коллекционированием и каталогизацией ссылок, присылаемых и публикуемых на форуме нашими читателями. Если вы являетесь правообладателем какого-либо представленного материала и не желаете чтобы ссылка на него находилась в нашем каталоге, свяжитесь с нами и мы незамедлительно удалим её. Файлы для обмена на трекере предоставлены пользователями сайта, и администрация не несёт ответственности за их содержание. Просьба не заливать файлы, защищенные авторскими правами, а также файлы нелегального содержания!