Jinta.ru

Полезный софт трекер





Начать новую тему Ответить на тему  [ 1 сообщение ] 
Автор Сообщение
СообщениеДобавлено: 12 июн 2022, 23:17 
Не в сети
Администратор
Аватара пользователя
Раздал: 3.82 ТБ
Скачал: 746.54 ГБ
Ратио: 1104.517


Зарегистрирован: 30 июл 2016, 22:43
Сообщения: 3532
#777

Кома


Год выпуска: 2020
Производство: Россия / «Большое Кино», «Fresh Film», «КИТ», «Марс Медиа»
Продолжительность: 01:50:52
Перевод: Не требуется
Жанр: Фантастика, фэнтези, боевик, приключения

Режиссер: Никита Аргунов

Продюсер: Сарик Андреасян, Гевонд Андреасян, Армен Ананикян

Актеры: Риналь Мухаметов, Любовь Аксенова, Антон Пампушный, Милош Бикович, Константин Лавроненко, Полина Кузьминская, Ростислав Гулбис, Вилен Бабичев, Игорь Сигаев, Евгения Каратыгина....

Описание:
После аварии молодой, талантливый архитектор приходит в себя в очень странном мире, лишь частично похожем на реальность. Ему предстоит выяснить, по каким законам существует это пространство, бороться за жизнь, встретить любовь, найти, наконец, выход в реальный мир и осознать его по-новому, поняв, что такое КОМА на самом деле....



Возраст: 16+ (зрителям, достигшим 16 лет)


Качество видео: BDRip 1080p
Видео: AVC/H.264, 1920x804, ~6110 Kbps
Аудио: AC3, 6 ch, 640 Kbps - Русский
Субтитры: Отсутствуют
Код:
x264 [info]: frame I:1108  Avg QP:18.60  size:154529
x264 [info]: frame P:36563 Avg QP:20.00  size: 64170
x264 [info]: frame B:121976 Avg QP:22.95  size: 21010
x264 [info]: consecutive B-frames:  3.0%  3.8%  8.5% 13.9% 24.7% 40.9%  2.9%  0.6%  0.5%  0.6%  0.6%

General
Unique ID                   : 313915315137991100255789673550907441778 (0xEC29E3FA99943318D121E52CFC780272)
Complete name               : F:\РУССКИЕ ФИЛЬМЫ\Кома (2020).mkv
Format                      : Matroska
Format version              : Version 4
File size                   : 5.23 GiB
Duration                    : 1 h 50 min
Overall bit rate            : 6 751 kb/s
Movie name                  : Кома (2020) (GER) - #LORDKILL#
Encoded date                : UTC 2022-04-04 09:34:43
Writing application         : mkvmerge v32.0.0 ('Astral Progressions') 64-bit
Writing library             : libebml v1.3.7 + libmatroska v1.5.0

Video
ID                          : 1
Format                      : AVC
Format/Info                 : Advanced Video Codec
Format profile              : [url=https://nnmclub.to/mailto:High@L4.1]High@L4.1[/url]
Format settings             : CABAC / 5 Ref Frames
Format settings, CABAC      : Yes
Format settings, Reference  : 5 frames
Codec ID                    : V_MPEG4/ISO/AVC
Duration                    : 1 h 50 min
Bit rate                    : 6 110 kb/s
Width                       : 1 920 pixels
Height                      : 804 pixels
Display aspect ratio        : 2.40:1
Frame rate mode             : Constant
Frame rate                  : 24.000 FPS
Color space                 : YUV
Chroma subsampling          : 4:2:0
Bit depth                   : 8 bits
Scan type                   : Progressive
Bits/(Pixel*Frame)          : 0.165
Stream size                 : 4.73 GiB (90%)
Writing library             : x264 core 164 r3080 8a43cc1
Encoding settings           : cabac=1 / ref=5 / deblock=1:-2:-2 / analyse=0x3:0x113 / me=umh / subme=10 / psy=1 / psy_rd=1.00:0.20 / mixed_ref=1 / me_range=32 / chroma_me=1 / trellis=2 / 8x8dct=1 / cqm=0 / deadzone=21,11 / fast_pskip=0 / chroma_qp_offset=-3 / threads=24 / lookahead_threads=6 / sliced_threads=0 / nr=0 / decimate=1 / interlaced=0 / bluray_compat=0 / constrained_intra=0 / bframes=10 / b_pyramid=2 / b_adapt=2 / b_bias=0 / direct=1 / weightb=1 / open_gop=0 / weightp=2 / keyint=240 / keyint_min=23 / scenecut=40 / intra_refresh=0 / rc=crf / mbtree=0 / crf=20.5 / qcomp=0.60 / qpmin=0 / qpmax=69 / qpstep=4 / ip_ratio=1.40 / pb_ratio=1.30 / aq=1:1.00
Default                     : Yes
Forced                      : No

Audio
ID                          : 2
Format                      : AC-3
Format/Info                 : Audio Coding 3
Commercial name             : Dolby Digital
Codec ID                    : A_AC3
Duration                    : 1 h 50 min
Bit rate mode               : Constant
Bit rate                    : 640 kb/s
Channel(s)                  : 6 channels
Channel layout              : L R C LFE Ls Rs
Sampling rate               : 48.0 kHz
Frame rate                  : 31.250 FPS (1536 SPF)
Compression mode            : Lossy
Stream size                 : 508 MiB (9%)
Title                       : Лицензия
Language                    : Russian
Service kind                : Complete Main
Default                     : No
Forced                      : No

Menu
00:00:00.000                : de:Глава 01
00:12:43.417                : de:Глава 02
00:18:44.667                : de:Глава 03
00:27:36.375                : de:Глава 04
00:34:27.542                : de:Глава 05
00:44:20.375                : de:Глава 06
00:49:26.500                : de:Глава 07
00:57:33.375                : de:Глава 08
01:05:32.167                : de:Глава 09
01:13:06.083                : de:Глава 10
01:23:10.167                : de:Глава 11
01:29:08.333                : de:Глава 12
01:34:09.667                : de:Глава 13
01:40:00.750                : de:Глава 14
01:43:39.958                : de:Глава 15
01:46:51.042                : de:Глава 16

Скриншоты:


Релиз от: LORDKILL


Вернуться к началу
 Профиль Отправить личное сообщение  
Ответить с цитатой  
  • Торрент
Автор: Jinta Хэш: ---
Добавлен: 12 июн 2022, 23:17 Приватный: Нет (DHT включён)
Статус: Проверен
Размер: 5.23 ГБ (5 613 882 584 байт)
Изменил:
---
Скачали: 0 (Раздающих: 0%)
Причина:
---
Здоровье: 0%
Сидеров: 0 Личеров: 0
Скорость раздачи: 0 байт/сек Скорость скачивания: 0 байт/сек
Последний сидер: Нет Последний личер: Нет
Для скачивания торрента необходимо зарегистрироваться или войти на трекер.
Показать сообщения за:  Поле сортировки  
Начать новую тему Ответить на тему  [ 1 сообщение ] 


Кто сейчас на конференции

Сейчас этот форум просматривают: нет зарегистрированных пользователей и гости: 2


Вы не можете начинать темы
Вы не можете отвечать на сообщения
Вы не можете редактировать свои сообщения
Вы не можете удалять свои сообщения
Вы не можете добавлять вложения

Найти:
Перейти:  
cron
Создано на основе phpBB® Forum Software © phpBB Group
ppkBB3cker v.2.5 © 2008-2021 @ PPK | Icon Theme by Everaldo.com Design Studio
Русская поддержка phpBB
[ Time : 0.048s | 13 Queries | GZIP : On ]
Ресурс не предоставляет электронные версии произведений, а занимается лишь коллекционированием и каталогизацией ссылок, присылаемых и публикуемых на форуме нашими читателями. Если вы являетесь правообладателем какого-либо представленного материала и не желаете чтобы ссылка на него находилась в нашем каталоге, свяжитесь с нами и мы незамедлительно удалим её. Файлы для обмена на трекере предоставлены пользователями сайта, и администрация не несёт ответственности за их содержание. Просьба не заливать файлы, защищенные авторскими правами, а также файлы нелегального содержания!