Jinta.ru

Полезный софт трекер





Начать новую тему Ответить на тему  [ 1 сообщение ] 
Автор Сообщение
СообщениеДобавлено: 10 апр 2019, 20:45 
Не в сети
Администратор
Аватара пользователя
Раздал: 1.22 ТБ
Скачал: 514.19 ГБ
Ратио: 1029.602


Зарегистрирован: 30 июл 2016, 22:43
Сообщения: 2253
Штамм химеры / Chimera Strain


#777

Информация о фильме
Название: Штамм химеры
Оригинальное название: Chimera Strain
Год выпуска: 2018
Выпущено: Индия, ОАЭ, США, Praxis Media Ventures
Продолжительность: 01:20:06
Перевод: Профессиональный (многоголосый, закадровый) | HDRezka Studio
Жанр: Фантастика, триллер, драма

Режиссер: Морис Хаймс

В ролях:
Генри Иэн Кьюсик, Кэтлин Куинлен, Эрика Эрвин, Дженна Харрисон, Каришма Ахлувалиа, Дженнифер Гьюламети, Равив Хаймс, Каавья Джаярам, Лоуренс Сэмпсон

О фильме:
По злой иронии судьбы жена Питера, учёного-генетика, умирает от редкой генетической мутации. Узнав, что дети унаследовали эту мутацию от матери и их ждёт такая же участь, он становится одержим идеей поиска "гена бессмертия", но понимает, что времени на поиски ему не хватит. Тогда он решает рискнуть и использовать на детях непроверенную технологию криогенной заморозки, чтобы затормозить развитие их болезни и дать себе время на поиски лекарства.



Файл
Качество: WEB-DL 1080p
Контейнер: MKV
Видео: MPEG-4 AVC, 8385 Кбит/с, 1920x1080
Аудио 1: Русский: AC3, 2 ch, 192 Кбит/с - HDRezka Studio
Аудио 2: Английский: Е-AC3, 6 ch, 640 Кбит/с - Original
Субтитры: Английские


General
Unique ID : 147858302532981404708257267196012244096 (0x6F3C792616FA71193E7B6D7CB0BBAC80)
Complete name : Chimera.Strain.2018.WEB-DL.1080p.mkv
Format : Matroska
Format version : Version 4 / Version 2
File size : 5.16 GiB
Duration : 1 h 20 min
Overall bit rate : 9 219 kb/s
Encoded date : UTC 2019-04-09 22:36:41
Writing application : mkvmerge v20.0.0 ('I Am The Sun') 64-bit
Writing library : libebml v1.3.5 + libmatroska v1.4.8

Video
ID : 1
Format : AVC
Format/Info : Advanced Video Codec
Format profile : High@L4
Format settings, CABAC : Yes
Format settings, RefFrames : 4 frames
Codec ID : V_MPEG4/ISO/AVC
Duration : 1 h 20 min
Bit rate mode : Constant
Bit rate : 8 385 kb/s
Nominal bit rate : 10 000 kb/s
Width : 1 920 pixels
Height : 1 080 pixels
Display aspect ratio : 16:9
Frame rate mode : Constant
Frame rate : 23.976 (24000/1001) FPS
Color space : YUV
Chroma subsampling : 4:2:0
Bit depth : 8 bits
Scan type : Progressive
Bits/(Pixel*Frame) : 0.169
Stream size : 4.69 GiB (91%)
Language : English
Default : Yes
Forced : No
Color range : Limited
Color primaries : BT.709
Transfer characteristics : BT.709
Matrix coefficients : BT.709

Audio #1
ID : 2
Format : AC-3
Format/Info : Audio Coding 3
Format settings, Endianness : Big
Codec ID : A_AC3
Duration : 1 h 20 min
Bit rate mode : Constant
Bit rate : 192 kb/s
Channel(s) : 2 channels
Channel positions : Front: L R
Sampling rate : 48.0 kHz
Frame rate : 31.250 FPS (1536 SPF)
Bit depth : 16 bits
Compression mode : Lossy
Stream size : 110 MiB (2%)
Title : MVO HDRezka
Language : Russian
Service kind : Complete Main
Default : Yes
Forced : No

Audio #2
ID : 3
Format : E-AC-3
Format/Info : Enhanced Audio Coding 3
Format settings, Endianness : Big
Codec ID : A_EAC3
Duration : 1 h 20 min
Bit rate mode : Constant
Bit rate : 640 kb/s
Channel(s) : 6 channels
Channel positions : Front: L C R, Side: L R, LFE
Sampling rate : 48.0 kHz
Frame rate : 187.500 FPS (256 SPF)
Compression mode : Lossy
Stream size : 367 MiB (7%)
Language : English
Service kind : Complete Main
Default : No
Forced : No

Text
ID : 4
Format : UTF-8
Codec ID : S_TEXT/UTF8
Codec ID/Info : UTF-8 Plain Text
Duration : 1 h 11 min
Bit rate : 38 b/s
Count of elements : 610
Stream size : 20.3 KiB (0%)
Language : English
Default : No
Forced : No


Вернуться к началу
 Профиль Отправить личное сообщение  
Ответить с цитатой  
  • Торрент
Автор: Jinta Хэш: ---
Добавлен: 10 апр 2019, 20:45 Приватный: Нет (DHT включён)
Статус: Проверен
Размер: 5.16 ГБ (5 538 562 105 байт)
Изменил:
---
Скачали: 2813 (Раздающих: 25%)
Причина:
---
Здоровье: 100%
Сидеров: 703 Личеров: 420
Скорость раздачи: 0 байт/сек Скорость скачивания: 0 байт/сек
Последний сидер: 1 месяц 11 часов 32 минуты 57 секунд назад Последний личер: 1 месяц 11 часов 32 минуты 57 секунд назад
Для скачивания торрента необходимо зарегистрироваться или войти на трекер.
Показать сообщения за:  Поле сортировки  
Начать новую тему Ответить на тему  [ 1 сообщение ] 


Кто сейчас на конференции

Сейчас этот форум просматривают: нет зарегистрированных пользователей и гости: 1


Вы не можете начинать темы
Вы не можете отвечать на сообщения
Вы не можете редактировать свои сообщения
Вы не можете удалять свои сообщения
Вы не можете добавлять вложения

Найти:
Перейти:  
cron
Создано на основе phpBB® Forum Software © phpBB Group
ppkBB3cker v.2.5 © 2008-2019 @ PPK | Icon Theme by Everaldo.com Design Studio
Русская поддержка phpBB
Ресурс не предоставляет электронные версии произведений, а занимается лишь коллекционированием и каталогизацией ссылок, присылаемых и публикуемых на форуме нашими читателями. Если вы являетесь правообладателем какого-либо представленного материала и не желаете чтобы ссылка на него находилась в нашем каталоге, свяжитесь с нами и мы незамедлительно удалим её. Файлы для обмена на трекере предоставлены пользователями сайта, и администрация не несёт ответственности за их содержание. Просьба не заливать файлы, защищенные авторскими правами, а также файлы нелегального содержания!