Jinta.ru

Полезный софт трекер





Начать новую тему Ответить на тему  [ 1 сообщение ] 
Автор Сообщение
СообщениеДобавлено: 15 апр 2019, 10:29 
Не в сети
Администратор
Аватара пользователя
Раздал: 1.22 ТБ
Скачал: 514.19 ГБ
Ратио: 1029.602


Зарегистрирован: 30 июл 2016, 22:43
Сообщения: 2253
Любовницы
«На тропе войны!»


#777

Год выпуска: 2019
Страна: Россия
Производство: КВФильм-Продакшн, Революция Фильм
Перевод: Не требуется | iTunes
Продолжительность:01:37:22
Жанр: Комедия

Режиссёр: Елена Хазанова

В ролях:
Паулина Андреева, Александра Бортич, Юлия Александрова, Мария Шалаева, Сергей Гармаш, Гоша Куценко, Юрий Стоянов, Максим Лагашкин, Александр Робак, Владимир Мишуков


Описание:
Три обычные москвички - медсестра, студентка и актриса - случайно встречаются в баре и выясняют, что все они только что расстались со своими мужчинами, которые оказались связаны узами брака. Для начала девушки решают отомстить своим бывшим. Но, когда цель достигнута, у подруг появляется идея: используя свою смекалку и артистические способности, помогать таким же как они, сёстрам по несчастью, выводить на чистую воду неверных мужей и наказывать двуличных любовников. Ведь таких, как они - тысячи.



Субтитры: Отсутствуют
Реклама: Отсутствует

Качество: WEB-DLRip -AVC
Формат: MKV
Видео кодек: MPEG-4 AVC
Аудио кодек: AС3
Видео: 1024x430 (2,40:1), 24,000 fps, x264 ~1760 kbps avg, 0.167 bit/pixel
Аудио: 48 kHz, AC3, 3/2 (L,C,R,l,r) + LFE ch, ~384.00 kbps avg | русский | [iTunes]


Релиз от: Rip by:

Общее
Уникальный идентификатор : 172188346795774163979060359962492323109 (0x818A44F1F2FDA20F112FE3628C4EC525)
Полное имя : D:ВидеоLyubovnitsy.2019.WEB-DLRip(AVC).OlLanDGroup.mkv
Формат : Matroska
Версия формата : Version 4 / Version 2
Размер файла : 1,46 Гбайт
Продолжительность : 1 ч. 37 м.
Общий поток : 2143 Кбит/сек
Название фильма : Любовницы (2019) Rip by Vovan366
Дата кодирования : UTC 2019-04-15 01:36:12
Программа кодирования : mkvmerge v28.2.0 ('The Awakening') 64-bit
Библиотека кодирования : libebml v1.3.6 + libmatroska v1.4.9
DURATION : 01:37:22.048000000
NUMBER_OF_FRAMES : 182564
NUMBER_OF_BYTES : 280418304
_STATISTICS_WRITING_APP : mkvmerge v28.2.0 ('The Awakening') 64-bit
_STATISTICS_WRITING_DATE_UTC : 2019-04-15 01:36:12
_STATISTICS_TAGS : BPS DURATION NUMBER_OF_FRAMES NUMBER_OF_BYTES

Видео
Идентификатор : 1
Формат : AVC
Формат/Информация : Advanced Video Codec
Профиль формата : High@L4.1
Параметр CABAC формата : Да
Параметр ReFrames формата : 9 кадров
Идентификатор кодека : V_MPEG4/ISO/AVC
Продолжительность : 1 ч. 37 м.
Битрейт : 1760 Кбит/сек
Ширина : 1024 пикселя
Высота : 430 пикселей
Соотношение сторон : 2,40:1
Режим частоты кадров : Постоянный
Частота кадров : 24,000 кадра/сек
Цветовое пространство : YUV
Субдискретизация насыщенности : 4:2:0
Битовая глубина : 8 бит
Тип развёртки : Прогрессивная
Бит/(Пиксели*Кадры) : 0.167
Размер потока : 1,17 Гбайт (80%)
Заголовок : Любовницы.2019.WEB-DLRip(AVC).OlLanDGroup
Библиотека кодирования : x264 core 146 r2538 121396c
Настройки программы : cabac=1 / ref=9 / deblock=1:-3:-3 / analyse=0x3:0x133 / me=umh / subme=11 / psy=1 / psy_rd=1.00:0.00 / mixed_ref=1 / me_range=32 / chroma_me=1 / trellis=2 / 8x8dct=1 / cqm=0 / deadzone=21,11 / fast_pskip=0 / chroma_qp_offset=-2 / threads=6 / lookahead_threads=1 / sliced_threads=0 / nr=0 / decimate=0 / interlaced=0 / bluray_compat=0 / constrained_intra=0 / bframes=10 / b_pyramid=2 / b_adapt=1 / b_bias=0 / direct=3 / weightb=1 / open_gop=0 / weightp=2 / keyint=240 / keyint_min=23 / scenecut=40 / intra_refresh=0 / rc_lookahead=40 / rc=2pass / mbtree=0 / bitrate=1760 / ratetol=1.0 / qcomp=0.60 / qpmin=0 / qpmax=69 / qpstep=4 / cplxblur=20.0 / qblur=0.5 / vbv_maxrate=50000 / vbv_bufsize=52500 / nal_hrd=none / filler=0 / ip_ratio=1.40 / pb_ratio=1.30 / aq=1:1.00
Default : Да
Forced : Нет

Аудио
Идентификатор : 2
Формат : AC-3
Формат/Информация : Audio Coding 3
Расширение режима : CM (complete main)
Параметр Endianness формата : Big
Идентификатор кодека : A_AC3
Продолжительность : 1 ч. 37 м.
Вид битрейта : Постоянный
Битрейт : 384 Кбит/сек
Каналы : 6 каналов
Расположение каналов : Front: L C R, Side: L R, LFE
Частота : 48,0 КГц
Битовая глубина : 16 бит
Метод сжатия : С потерями
Размер потока : 267 Мбайт (18%)
Заголовок : rus [iTunes]
Язык : Russian
Default : Да
Forced : Нет

Меню
00:00:00.000 : en:Глава 1
00:05:53.166 : en:Глава 2
00:12:35.332 : en:Глава 3
00:21:45.831 : en:Глава 4
00:28:45.289 : en:Глава 5
00:33:28.497 : en:Глава 6
00:42:54.497 : en:Глава 7
00:50:50.872 : en:Глава 8
00:57:25.247 : en:Глава 9
01:07:50.080 : en:Глава 10
01:13:25.996 : en:Глава 11
01:19:39.578 : en:Глава 12
01:25:26.994 : en:Глава 13
01:32:32.994 : en:Глава 14
01:37:21.994 : en:Глава 1




Вернуться к началу
 Профиль Отправить личное сообщение  
Ответить с цитатой  
  • Торрент
Автор: Jinta Хэш: ---
Добавлен: 15 апр 2019, 10:29 Приватный: Нет (DHT включён)
Статус: Проверен
Размер: 1.46 ГБ (1 564 858 704 байт)
Изменил:
---
Скачали: 417 (Раздающих: 70%)
Причина:
---
Здоровье: 100%
Сидеров: 290 Личеров: 134
Скорость раздачи: 0 байт/сек Скорость скачивания: 0 байт/сек
Последний сидер: 28 дней 22 часа 32 минуты 25 секунд назад Последний личер: 1 месяц 12 часов 13 минут 59 секунд назад
Для скачивания торрента необходимо зарегистрироваться или войти на трекер.
Показать сообщения за:  Поле сортировки  
Начать новую тему Ответить на тему  [ 1 сообщение ] 


Кто сейчас на конференции

Сейчас этот форум просматривают: нет зарегистрированных пользователей и гости: 1


Вы не можете начинать темы
Вы не можете отвечать на сообщения
Вы не можете редактировать свои сообщения
Вы не можете удалять свои сообщения
Вы не можете добавлять вложения

Найти:
Перейти:  
cron
Создано на основе phpBB® Forum Software © phpBB Group
ppkBB3cker v.2.5 © 2008-2019 @ PPK | Icon Theme by Everaldo.com Design Studio
Русская поддержка phpBB
Ресурс не предоставляет электронные версии произведений, а занимается лишь коллекционированием и каталогизацией ссылок, присылаемых и публикуемых на форуме нашими читателями. Если вы являетесь правообладателем какого-либо представленного материала и не желаете чтобы ссылка на него находилась в нашем каталоге, свяжитесь с нами и мы незамедлительно удалим её. Файлы для обмена на трекере предоставлены пользователями сайта, и администрация не несёт ответственности за их содержание. Просьба не заливать файлы, защищенные авторскими правами, а также файлы нелегального содержания!