Jinta.ru

Полезный софт трекер





Начать новую тему Ответить на тему  [ 1 сообщение ] 
Автор Сообщение
СообщениеДобавлено: 13 май 2019, 18:35 
Не в сети
Администратор
Аватара пользователя
Раздал: 1.17 ТБ
Скачал: 225.87 ГБ
Ратио: 1016.920


Зарегистрирован: 07 окт 2016, 01:02
Сообщения: 4474
Дикая молодость / Savage Youth


#777

Информация о фильме
Название: Дикая молодость
Оригинальное название: Savage Youth
Год выпуска: 2018
Выпущено: США, Hiventure Media Sa
Продолжительность: 01:39:04
Перевод: Профессиональный (многоголосый, закадровый) | HDRezka Studio
Жанр: Драма, криминал

Режиссер: Майкл Кертис Джонсон

В ролях:
Грэйс Виктория Кокс, Текуан Ричмонд, Уилл Бриттейн, Хлоя Ливайн, Саша Фельдман, Митчелл Эдвардс, Джонатан Майкл Траутмэнн, Томас Пэйс, Жавун Бэйкер, Качи Анткович

О фильме:
История о группе подростков, оказавшихся в ситуации, когда саморазрушение становится единственным способом существования. Елена – приличная девушка, которая решила связать свою судьбу с рэпером Джейсеном, продающим наркотики и ведущим разгульный образ жизни. Гейб и Майк – простые парни из гетто, где преступная деятельность является основным средством заработка. Главных героев объединяет то, что их жизни стремительно несутся под откос, однако вскоре им предстоит осознать свои ошибки и принять непростые решения.



Файл
Качество: WEB-DL 1080p
Контейнер: MKV
Видео: MPEG-4 AVC, 5216 Кбит/с, 1920x1080
Аудио 1: Русский: AC3, 2 ch, 192 Кбит/с - HDRezka Studio
Аудио 2: Английский: AC3, 6 ch, 384 Кбит/с - Original
Субтитры: Английские

General
Unique ID : 81634535253520589882207018419141915156 (0x3D6A3D5609C8E4D7895EBF9FC392B214)
Complete name : G:Savage.Youth.2018.WEB-DL.1080p.mkv
Format : Matroska
Format version : Version 4 / Version 2
File size : 4.01 GiB
Duration : 1 h 39 min
Overall bit rate : 5 794 kb/s
Encoded date : UTC 2019-05-12 02:19:23
Writing application : mkvmerge v20.0.0 ('I Am The Sun') 64-bit
Writing library : libebml v1.3.5 + libmatroska v1.4.8

Video
ID : 1
Format : AVC
Format/Info : Advanced Video Codec
Format profile : High@L4
Format settings : CABAC / 4 Ref Frames
Format settings, CABAC : Yes
Format settings, RefFrames : 4 frames
Codec ID : V_MPEG4/ISO/AVC
Duration : 1 h 39 min
Bit rate : 5 216 kb/s
Width : 1 920 pixels
Height : 1 080 pixels
Display aspect ratio : 16:9
Frame rate mode : Constant
Frame rate : 23.976 (24000/1001) FPS
Color space : YUV
Chroma subsampling : 4:2:0
Bit depth : 8 bits
Scan type : Progressive
Bits/(Pixel*Frame) : 0.105
Stream size : 3.61 GiB (90%)
Language : English
Default : Yes
Forced : No
Color range : Limited
Color primaries : BT.709
Transfer characteristics : BT.709
Matrix coefficients : BT.709

Audio #1
ID : 2
Format : AC-3
Format/Info : Audio Coding 3
Codec ID : A_AC3
Duration : 1 h 39 min
Bit rate mode : Constant
Bit rate : 192 kb/s
Channel(s) : 2 channels
Channel positions : Front: L R
Sampling rate : 48.0 kHz
Frame rate : 31.250 FPS (1536 SPF)
Bit depth : 16 bits
Compression mode : Lossy
Stream size : 136 MiB (3%)
Title : MVO, HDRezka Studio
Language : Russian
Service kind : Complete Main
Default : Yes
Forced : No

Audio #2
ID : 3
Format : AC-3
Format/Info : Audio Coding 3
Codec ID : A_AC3
Duration : 1 h 39 min
Bit rate mode : Constant
Bit rate : 384 kb/s
Channel(s) : 6 channels
Channel positions : Front: L C R, Side: L R, LFE
Sampling rate : 48.0 kHz
Frame rate : 31.250 FPS (1536 SPF)
Bit depth : 16 bits
Compression mode : Lossy
Stream size : 272 MiB (7%)
Language : English
Service kind : Complete Main
Default : No
Forced : No

Text
ID : 4
Format : UTF-8
Codec ID : S_TEXT/UTF8
Codec ID/Info : UTF-8 Plain Text
Duration : 1 h 38 min
Bit rate : 77 b/s
Count of elements : 1396
Stream size : 55.7 KiB (0%)
Language : English
Default : No
Forced : No

Menu
00:00:00.000 : en:1
00:15:00.000 : en:2
00:30:00.000 : en:3
00:45:00.000 : en:4
01:00:00.000 : en:5
01:15:00.000 : en:6
01:30:00.000 : en:7


Вернуться к началу
 Профиль Отправить личное сообщение  
Ответить с цитатой  
  • Торрент
Автор: Titan Хэш: ---
Добавлен: 13 май 2019, 18:35 Приватный: Нет (DHT включён)
Статус: Проверен
Размер: 4.01 ГБ (4 305 363 897 байт)
Изменил:
---
Скачали: 1452 (Раздающих: 12%)
Причина:
---
Здоровье: 100%
Сидеров: 176 Личеров: 28
Скорость раздачи: 0 байт/сек Скорость скачивания: 0 байт/сек
Последний сидер: 13 часов 36 минут 56 секунд назад Последний личер: 13 часов 36 минут 56 секунд назад
Для скачивания торрента необходимо зарегистрироваться или войти на трекер.
Показать сообщения за:  Поле сортировки  
Начать новую тему Ответить на тему  [ 1 сообщение ] 


Кто сейчас на конференции

Сейчас этот форум просматривают: нет зарегистрированных пользователей и гости: 1


Вы не можете начинать темы
Вы не можете отвечать на сообщения
Вы не можете редактировать свои сообщения
Вы не можете удалять свои сообщения
Вы не можете добавлять вложения

Найти:
Перейти:  
cron
Создано на основе phpBB® Forum Software © phpBB Group
ppkBB3cker v.2.5 © 2008-2019 @ PPK | Icon Theme by Everaldo.com Design Studio
Русская поддержка phpBB
Ресурс не предоставляет электронные версии произведений, а занимается лишь коллекционированием и каталогизацией ссылок, присылаемых и публикуемых на форуме нашими читателями. Если вы являетесь правообладателем какого-либо представленного материала и не желаете чтобы ссылка на него находилась в нашем каталоге, свяжитесь с нами и мы незамедлительно удалим её. Файлы для обмена на трекере предоставлены пользователями сайта, и администрация не несёт ответственности за их содержание. Просьба не заливать файлы, защищенные авторскими правами, а также файлы нелегального содержания!