Jinta.ru

Полезный софт трекер





Начать новую тему Ответить на тему  [ 1 сообщение ] 
Автор Сообщение
СообщениеДобавлено: 23 май 2019, 20:02 
Не в сети
Администратор
Аватара пользователя
Раздал: 1.21 ТБ
Скачал: 514.14 ГБ
Ратио: 1029.051


Зарегистрирован: 30 июл 2016, 22:43
Сообщения: 2246
Король преступности / King of Crime / Milk and Honey: The Movie


#777

Страна: Великобритания
Производство: Warrior Film Promotions
Год выпуска: 2018
Продолжительность: 01:42:19
Перевод: Профессиональный (многоголосый, закадровый) | HDRezka Studio
Субтитры: нет
Жанр: боевик, триллер, драма, криминал


Режиссер: Мэтт Гембелл / Matt Gambell

В ролях:
Марк Уингетт, Клер Кинг, Рэйчел Брайт, Николас Брендон, Вэс Блэквуд, Джонно Дэвис, Зед Джозеф, Грег Тэннер, Лиза Ронахан

Описание:
Маркус Кинг — гангстер старой закалки, который привык решать все спорные вопросы с позиции силы. Вот только создал он свою империю не с помощью банды безжалостных головорезов, а благодаря армии кибер-преступников, состоящей из лучших выпускников элитных учебных учреждений, что позволило ему стать влиятельной фигурой в криминальном мире XXI века. Но всё меняется, когда его сверхприбыльный незаконный бизнес привлекает внимание преступной группировки, связанной с международной террористической организацией...




Дата премьеры (мир): 2 ноября 2018



Качество: WEB-DL 1080p
Формат: MKV
Видео кодек: AVC
Аудио кодек: АС3
Видео: 1908x792 (2.40:1), 23.976 fps, MPEG-4 AVC ~4 559 kbps avg
Аудио №1: 48.0 kHz, AC3 Dolby Digital, 2/0 (L,R) ch, ~192 kbps | RUS / HDRezka Studio
Аудио №2: 48.0 kHz, AC3 Dolby Digital, 3/2 (L,C,R,l,r) + LFE ch, ~384 kbps | ENG

General
Unique ID : 215340247886161444075135896105054696866 (0xA20105EE0C43D8A2E54D7792B4F0F5A2)
Complete name : King.of.Crime.2018.WEB-DL.1080p.mkv
Format : Matroska
Format version : Version 4 / Version 2
File size : 3.67 GiB
Duration : 1 h 42 min
Overall bit rate : 5 137 kb/s
Encoded date : UTC 2019-05-23 06:01:21
Writing application : mkvmerge v20.0.0 ('I Am The Sun') 64-bit
Writing library : libebml v1.3.5 + libmatroska v1.4.8

Video
ID : 1
Format : AVC
Format/Info : Advanced Video Codec
Format profile : High@L4
Format settings : CABAC / 5 Ref Frames
Format settings, CABAC : Yes
Format settings, RefFrames : 5 frames
Codec ID : V_MPEG4/ISO/AVC
Duration : 1 h 42 min
Bit rate : 4 559 kb/s
Width : 1 908 pixels
Height : 792 pixels
Display aspect ratio : 2.40:1
Frame rate mode : Constant
Frame rate : 23.976 FPS
Color space : YUV
Chroma subsampling : 4:2:0
Bit depth : 8 bits
Scan type : Progressive
Bits/(Pixel*Frame) : 0.126
Stream size : 3.26 GiB (89%)
Language : English
Default : Yes
Forced : No
Color range : Limited
Color primaries : BT.709
Transfer characteristics : BT.709
Matrix coefficients : BT.709

Audio #1
ID : 2
Format : AC-3
Format/Info : Audio Coding 3
Codec ID : A_AC3
Duration : 1 h 42 min
Bit rate mode : Constant
Bit rate : 192 kb/s
Channel(s) : 2 channels
Channel positions : Front: L R
Sampling rate : 48.0 kHz
Frame rate : 31.250 FPS (1536 SPF)
Bit depth : 16 bits
Compression mode : Lossy
Stream size : 141 MiB (4%)
Title : MVO HDRezka Studio
Language : Russian
Service kind : Complete Main
Default : Yes
Forced : No

Audio #2
ID : 3
Format : AC-3
Format/Info : Audio Coding 3
Codec ID : A_AC3
Duration : 1 h 42 min
Bit rate mode : Constant
Bit rate : 384 kb/s
Channel(s) : 6 channels
Channel positions : Front: L C R, Side: L R, LFE
Sampling rate : 48.0 kHz
Frame rate : 31.250 FPS (1536 SPF)
Bit depth : 16 bits
Compression mode : Lossy
Stream size : 281 MiB (7%)
Language : English
Service kind : Complete Main
Default : No
Forced : No

Menu
00:00:00.000 : en:1
00:07:15.000 : en:2
00:18:48.000 : en:3
00:28:43.000 : en:4
00:37:55.000 : en:5
00:48:32.000 : en:6
01:01:40.000 : en:7
01:12:14.000 : en:8
01:22:42.000 : en:9
01:30:51.000 : en:10
01:39:16.000 : en:11


Вернуться к началу
 Профиль Отправить личное сообщение  
Ответить с цитатой  
  • Торрент
Автор: Jinta Хэш: ---
Добавлен: 23 май 2019, 20:02 Приватный: Нет (DHT включён)
Статус: Проверен
Размер: 3.67 ГБ (3 941 764 995 байт)
Изменил:
---
Скачали: 1021 (Раздающих: 39%)
Причина:
---
Здоровье: 100%
Сидеров: 394 Личеров: 242
Скорость раздачи: 0 байт/сек Скорость скачивания: 0 байт/сек
Последний сидер: 24 дня 21 час 42 минуты 36 секунд назад Последний личер: 24 дня 21 час 42 минуты 36 секунд назад
Для скачивания торрента необходимо зарегистрироваться или войти на трекер.
Показать сообщения за:  Поле сортировки  
Начать новую тему Ответить на тему  [ 1 сообщение ] 


Кто сейчас на конференции

Сейчас этот форум просматривают: нет зарегистрированных пользователей и гости: 1


Вы не можете начинать темы
Вы не можете отвечать на сообщения
Вы не можете редактировать свои сообщения
Вы не можете удалять свои сообщения
Вы не можете добавлять вложения

Найти:
Перейти:  
cron
Создано на основе phpBB® Forum Software © phpBB Group
ppkBB3cker v.2.5 © 2008-2019 @ PPK | Icon Theme by Everaldo.com Design Studio
Русская поддержка phpBB
Ресурс не предоставляет электронные версии произведений, а занимается лишь коллекционированием и каталогизацией ссылок, присылаемых и публикуемых на форуме нашими читателями. Если вы являетесь правообладателем какого-либо представленного материала и не желаете чтобы ссылка на него находилась в нашем каталоге, свяжитесь с нами и мы незамедлительно удалим её. Файлы для обмена на трекере предоставлены пользователями сайта, и администрация не несёт ответственности за их содержание. Просьба не заливать файлы, защищенные авторскими правами, а также файлы нелегального содержания!