Jinta.ru

Полезный софт трекер





Начать новую тему Ответить на тему  [ 1 сообщение ] 
Автор Сообщение
СообщениеДобавлено: 07 июн 2019, 00:29 
Не в сети
Администратор
Аватара пользователя
Раздал: 1.44 ТБ
Скачал: 545.89 ГБ
Ратио: 1038.334


Зарегистрирован: 30 июл 2016, 22:43
Сообщения: 2378
Час расплаты / Paycheck


#777

Информация о фильме
Название: Час расплаты
Оригинальное название: Paycheck
Год выхода: 2003
Выпущено: DreamWorks SKG
Продолжительность: 01:58:46
Перевод: Дублированный
Жанр: фантастика, боевик, триллер, детектив

Режиссер: Джон Ву

В ролях:
Бен Аффлек, Аарон Экхарт, Ума Турман, Пол Джаматти, Колм Фиор, Джо Мортон, Майкл С. Холл, Питер Фридман, Кэтрин Моррис, Ивана Миличевич

О фильме:
Майкл Дженнингс — выдающийся компьютерный инженер-виртоуз, работающий над строго засекреченными мега-проектами. После успешного выполнения работы Майклу на специальном устройстве стирают часть памяти, дабы он не смог вспомнить никаких подробностей.
Последнее дело Дженнингса — контракт на три года от старого друга, по завершении которого герой должен получить чек на «скромную» восьмизначную сумму. Какого же было удивление инженера, когда он, придя в себя после «стирания» памяти, не обнаружил заветного чека, но нашел конверт со странными предметами, которые он послал себе сам. Эти предметы — ключи к «стертому» прошлому Дженнингса, где скрывается страшная тайна!




Скачать: сэмпл

Файл
Кодек: x264
Качество: BDRip (источник: Blu-ray Disc)
Видео: 1920x816 (2,35:1), 23.976 fps, 4886 kbps
Звук: 48 kHz, AC-3, 6 ch, 384 kbps
Субтитры: Русские, Английские


Скриншоты

Общее
Уникальный идентификатор : 196035310386179731799890238232487612264 (0x937B0706811F0F0CB7802BF3B3E14F68)
Полное имя : Paycheck.2003.BDRip.1080p.Rus.mkv
Формат : Matroska
Версия формата : Version 2
Размер файла : 4,37 Гбайт
Продолжительность : 1 ч. 58 м.
Общий поток : 5269 Кбит/сек
Дата кодирования : UTC 2011-09-07 23:15:22
Программа кодирования : mkvmerge v4.0.0 ('The Stars were mine') сборка от Jun 6 2010 16:18:42
Библиотека кодирования : libebml v1.0.0 + libmatroska v1.0.0

Видео
Идентификатор : 1
Формат : AVC
Формат/Информация : Advanced Video Codec
Профиль формата : High@L4.1
Параметр CABAC формата : Да
Параметр ReFrames формата : 5 кадров
Идентификатор кодека : V_MPEG4/ISO/AVC
Продолжительность : 1 ч. 58 м.
Битрейт : 4886 Кбит/сек
Ширина : 1920 пикселей
Высота : 816 пикселей
Соотношение сторон : 2,35:1
Частота кадров : 23,976 кадра/сек
Цветовое пространство : YUV
Субдискретизация насыщенности : 4:2:0
Битовая глубина : 8 бит
Тип развёртки : Прогрессивная
Бит/(Пиксели*Кадры) : 0.130
Размер потока : 3,97 Гбайт (91%)
Библиотека кодирования : x264 core 116 r2074 2641b9e
Настройки программы : cabac=1 / ref=5 / deblock=1:0:0 / analyse=0x3:0x133 / me=umh / subme=10 / psy=1 / psy_rd=1.00:0.10 / mixed_ref=1 / me_range=32 / chroma_me=1 / trellis=2 / 8x8dct=1 / cqm=0 / deadzone=21,11 / fast_pskip=0 / chroma_qp_offset=-3 / threads=12 / sliced_threads=0 / nr=0 / decimate=1 / interlaced=0 / bluray_compat=0 / constrained_intra=0 / bframes=5 / b_pyramid=2 / b_adapt=2 / b_bias=0 / direct=3 / weightb=1 / open_gop=0 / weightp=2 / keyint=250 / keyint_min=23 / scenecut=40 / intra_refresh=0 / rc_lookahead=60 / rc=2pass / mbtree=1 / bitrate=4886 / ratetol=1.0 / qcomp=0.60 / qpmin=0 / qpmax=69 / qpstep=4 / cplxblur=20.0 / qblur=0.5 / ip_ratio=1.40 / aq=1:1.00
Язык : English

Аудио
Идентификатор : 2
Формат : AC-3
Формат/Информация : Audio Coding 3
Расширение режима : CM (complete main)
Идентификатор кодека : A_AC3
Продолжительность : 1 ч. 58 м.
Вид битрейта : Постоянный
Битрейт : 384 Кбит/сек
Каналы : 6 каналов
Расположение каналов : Front: L C R, Side: L R, LFE
Частота : 48,0 КГц
Битовая глубина : 16 бит
Метод сжатия : С потерями
Размер потока : 326 Мбайт (7%)
Язык : Russian

Текст #1
Идентификатор : 3
Формат : UTF-8
Идентификатор кодека : S_TEXT/UTF8
Идентификатор кодека/Информация : UTF-8 Plain Text
Язык : Russian

Текст #2
Идентификатор : 4
Формат : UTF-8
Идентификатор кодека : S_TEXT/UTF8
Идентификатор кодека/Информация : UTF-8 Plain Text
Язык : English

Меню
00:00:00.000 : :Chapter 01
00:06:33.518 : :Chapter 02
00:09:28.108 : :Chapter 03
00:12:03.431 : :Chapter 04
00:15:07.740 : :Chapter 05
00:18:15.135 : :Chapter 06
00:25:13.887 : :Chapter 07
00:29:32.353 : :Chapter 08
00:34:15.386 : :Chapter 09
00:40:01.899 : :Chapter 10
00:43:32.610 : :Chapter 11
00:47:51.869 : :Chapter 12
00:57:11.302 : :Chapter 13
01:00:26.497 : :Chapter 14
01:06:05.169 : :Chapter 15
01:10:56.585 : :Chapter 16
01:17:42.948 : :Chapter 17
01:20:41.795 : :Chapter 18
01:25:46.182 : :Chapter 19
01:32:33.171 : :Chapter 20
01:39:58.575 : :Chapter 21
01:50:29.622 : :Chapter 22
01:58:45.868 : :Chapter 23


Вернуться к началу
 Профиль Отправить личное сообщение  
Ответить с цитатой  
  • Торрент
Автор: Jinta Хэш: ---
Добавлен: 07 июн 2019, 00:29 Приватный: Нет (DHT включён)
Статус: Проверен
Размер: 4.37 ГБ (4 693 888 084 байт)
Изменил:
---
Скачали: 53 (Раздающих: 25%)
Причина:
---
Здоровье: 100%
Сидеров: 13 Личеров: 0
Скорость раздачи: 0 байт/сек Скорость скачивания: 0 байт/сек
Последний сидер: 1 месяц 1 день 18 часов 59 минут 11 секунд назад Последний личер: Нет
Для скачивания торрента необходимо зарегистрироваться или войти на трекер.
Показать сообщения за:  Поле сортировки  
Начать новую тему Ответить на тему  [ 1 сообщение ] 


Кто сейчас на конференции

Сейчас этот форум просматривают: нет зарегистрированных пользователей и гости: 2


Вы не можете начинать темы
Вы не можете отвечать на сообщения
Вы не можете редактировать свои сообщения
Вы не можете удалять свои сообщения
Вы не можете добавлять вложения

Найти:
Перейти:  
cron
Создано на основе phpBB® Forum Software © phpBB Group
ppkBB3cker v.2.5 © 2008-2019 @ PPK | Icon Theme by Everaldo.com Design Studio
Русская поддержка phpBB
Ресурс не предоставляет электронные версии произведений, а занимается лишь коллекционированием и каталогизацией ссылок, присылаемых и публикуемых на форуме нашими читателями. Если вы являетесь правообладателем какого-либо представленного материала и не желаете чтобы ссылка на него находилась в нашем каталоге, свяжитесь с нами и мы незамедлительно удалим её. Файлы для обмена на трекере предоставлены пользователями сайта, и администрация не несёт ответственности за их содержание. Просьба не заливать файлы, защищенные авторскими правами, а также файлы нелегального содержания!