Jinta.ru

Полезный софт трекер





Начать новую тему Ответить на тему  [ 1 сообщение ] 
Автор Сообщение
СообщениеДобавлено: 02 фев 2017, 22:51 
Нацистские тайны Второй мировой / NG: Nazi weird war two [01-05 из 06]


#777
Информация о фильме
Название: Нацистские тайны Второй мировой
Оригинальное название: Nazi weird war two
Год выхода: 2016
Страна: Великобритания
Студия: National Geographic Studios
Продолжительность: 5х ~ 00:44:00
Перевод: Профессиональный (одноголосый, закадровый)
Жанр: Документальный

Режиссер: Симон Эверсон, Симон Дейли

В ролях: Ученые

О фильме:
70 лет с момента окончания Второй мировой войны... По мере того, как память о тех днях тускнеет, из ее темных уголков всплывают различные невероятные истории. Британский историк доктор Сэм Уиллис, и американец корейского происхождения Роберт Джо, объединили свои силы, чтобы добраться до истины и разгадать нацистские тайны Второй мировой войны. Когда речь идет о войне, правда часто бывает страннее чем вымысел.



Файл
Тип релиза: HDTVRip 720p
Контейнер: MKV
Видео: 1280х720 (16:9); 25.000 fps; ~ 3500 Кбит/с
Аудио: АС3, 2 ch, 192 Кбит/с
Аудио 2: АС3, 6 ch, 384 Кбит/с
01. Загадочный замок Гиммлера (Himmlers haunted castle)
Март 1945 года. Последние дни нацистской Германии. Мир рейхсфюрера СС Генриха Гиммлера рушится на его глазах. Он отдает приказ разрушить старинный замок Вевельсбург, до того как его захватят Союзники. Истории о черной магии, супероружии, странных культах и необычных ритуалах.

02. Гитлеровские безумцы / Hitler's meth heads
Ходили слухи, что нацисты обладают секретным оружием. Они оказались правдой. Это было наркотическое лекарство первитин, которое позволяло солдатам сражаться с нечеловеческой выносливостью. К концу войны, немецкие солдаты пристрастились к опасному наркотику, чтобы выжить. Нацисты рискнули тысячами жизней в поисках вещества, которое превратит обычных людей в суперсолдат.

03. Тайная крепость с картинами (Secret Art Fortress)
По мере того как хаос Второй мировой войны поглощал Италию, один британский офицер в эпицентре боевых действий, обнаруживает одну из самых странных находок Второй мировой войны. В старинном замке Montegufoni, недалеко от линии фронта, лежит огромная коллекция бесценных произведений искусства некоторых величайших мастеров эпохи Возрождения Италии. Кто оставил шедевры там? Зачем? Как же они сохранились, когда бои бушевали в двух километрах от замка?

04. Крокодилья бойня (Crocodile Massacre)
Февраль 1945 года. Бирманский фронт. Около тысячи японских солдат сражаются на отдаленном тропическом острове. Они попали в окружение врага, превосходившего их числом и вооружением. Чтобы выжить им пришлось бежать. История гласит, что пытаясь спастись, японцы забежали в болото, кишащее огромными крокодилами. Началась бойня. Из тысячи солдат выжило только двадцать. Это правда или вымысел?

05. Потерянное золото Гитлера (Hitlers lost gold)
1945 год - последние месяцы Второй мировой войны. Нацистская Германия рушится под ударами русских и американских войск. Множатся слухи, что поезда, набитые золотом, отнятым нацистами у их невинных жертв, и деньгами из государственных банков стран, оккупированных немцами, пропали во время движения через континент. 70 лет спустя эти слухи вновь оживились, когда два охотника за сокровищами заявили, что нашли один из пропавших нацистских поездов в Польше.
Format : Matroska
Format version : Version 4 / Version 2
File size : 1.25 GiB
Duration : 43 min 58 s
Overall bit rate : 4 076 kb/s
Encoded date : UTC 2016-12-28 19:26:30
Writing application : mkvmerge v7.8.0 ('River Man') 32bit built on Mar 27 2015 16:18:02
Writing library : libebml v1.3.1 + libmatroska v1.4.2

Video
ID : 1
Format : AVC
Format/Info : Advanced Video Codec
Format profile : High@L4.1
Format settings, CABAC : Yes
Format settings, ReFrames : 6 frames
Codec ID : V_MPEG4/ISO/AVC
Duration : 43 min 58 s
Bit rate : 3 500 kb/s
Width : 1 280 pixels
Height : 720 pixels
Display aspect ratio : 16:9
Frame rate mode : Constant
Frame rate : 25.000 FPS
Color space : YUV
Chroma subsampling : 4:2:0
Bit depth : 8 bits
Scan type : Progressive
Bits/(Pixel*Frame) : 0.152
Stream size : 1.07 GiB (86%)
Writing library : x264 core 146 r2538 121396c
Encoding settings : cabac=1 / ref=6 / deblock=1:-1:-1 / analyse=0x3:0x113 / me=umh / subme=9 / psy=1 / psy_rd=1.00:0.20 / mixed_ref=1 / me_range=36 / chroma_me=1 / trellis=2 / 8x8dct=1 / cqm=0 / deadzone=21,11 / fast_pskip=0 / chroma_qp_offset=-3 / threads=12 / lookahead_threads=1 / sliced_threads=0 / nr=0 / decimate=0 / interlaced=0 / bluray_compat=0 / constrained_intra=0 / bframes=6 / b_pyramid=2 / b_adapt=2 / b_bias=0 / direct=3 / weightb=1 / open_gop=0 / weightp=2 / keyint=250 / keyint_min=25 / scenecut=40 / intra_refresh=0 / rc_lookahead=50 / rc=2pass / mbtree=1 / bitrate=3500 / ratetol=1.0 / qcomp=0.60 / qpmin=0 / qpmax=69 / qpstep=4 / cplxblur=20.0 / qblur=0.5 / vbv_maxrate=14000 / vbv_bufsize=14000 / nal_hrd=none / filler=0 / ip_ratio=1.40 / aq=1:1.00
Language : Russian
Default : Yes
Forced : No

Audio #1
ID : 2
Format : AC-3
Format/Info : Audio Coding 3
Mode extension : CM (complete main)
Format settings, Endianness : Big
Codec ID : A_AC3
Duration : 43 min 58 s
Bit rate mode : Constant
Bit rate : 192 kb/s
Channel(s) : 2 channels
Channel positions : Front: L R
Sampling rate : 48.0 kHz
Frame rate : 31.250 FPS (1536 spf)
Bit depth : 16 bits
Compression mode : Lossy
Stream size : 60.4 MiB (5%)
Language : Russian
Default : Yes
Forced : No

Audio #2
ID : 3
Format : AC-3
Format/Info : Audio Coding 3
Mode extension : CM (complete main)
Format settings, Endianness : Big
Codec ID : A_AC3
Duration : 43 min 58 s
Bit rate mode : Constant
Bit rate : 384 kb/s
Channel(s) : 6 channels
Channel positions : Front: L C R, Side: L R, LFE
Sampling rate : 48.0 kHz
Frame rate : 31.250 FPS (1536 spf)
Bit depth : 16 bits
Compression mode : Lossy
Stream size : 121 MiB (9%)
Language : English
Default : No
Forced : No


Вернуться к началу
  
Ответить с цитатой  
  • Торрент
Автор: Saturn Хэш: ---
Добавлен: 02 фев 2017, 22:51 Приватный: Нет (DHT включён)
Статус: Проверен
Размер: 6.73 ГБ (7 229 260 873 байт)
Изменил:
---
Скачали: 0 (Раздающих: 0%)
Причина:
---
Здоровье: 0%
Сидеров: 0 Личеров: 0
Скорость раздачи: 0 байт/сек Скорость скачивания: 0 байт/сек
Последний сидер: Нет Последний личер: Нет
Для скачивания торрента необходимо зарегистрироваться или войти на трекер.
Показать сообщения за:  Поле сортировки  
Начать новую тему Ответить на тему  [ 1 сообщение ] 


Кто сейчас на конференции

Сейчас этот форум просматривают: нет зарегистрированных пользователей и гости: 1


Вы не можете начинать темы
Вы не можете отвечать на сообщения
Вы не можете редактировать свои сообщения
Вы не можете удалять свои сообщения
Вы не можете добавлять вложения

Найти:
Перейти:  
cron
Создано на основе phpBB® Forum Software © phpBB Group
ppkBB3cker v.2.5 © 2008-2019 @ PPK | Icon Theme by Everaldo.com Design Studio
Русская поддержка phpBB
Ресурс не предоставляет электронные версии произведений, а занимается лишь коллекционированием и каталогизацией ссылок, присылаемых и публикуемых на форуме нашими читателями. Если вы являетесь правообладателем какого-либо представленного материала и не желаете чтобы ссылка на него находилась в нашем каталоге, свяжитесь с нами и мы незамедлительно удалим её. Файлы для обмена на трекере предоставлены пользователями сайта, и администрация не несёт ответственности за их содержание. Просьба не заливать файлы, защищенные авторскими правами, а также файлы нелегального содержания!