Jinta.ru

Полезный софт трекер





Начать новую тему Ответить на тему  [ 1 сообщение ] 
Автор Сообщение
СообщениеДобавлено: 06 июл 2018, 22:34 
Не в сети
Администратор
Аватара пользователя
Раздал: 1.98 ТБ
Скачал: 359.38 ГБ
Ратио: 1031.199


Зарегистрирован: 07 окт 2016, 01:02
Сообщения: 4877
Конор МакГрегор: Печально известный / Conor McGregor: Notorious


#777

Информация о фильме
Название: Конор МакГрегор: Печально известный
Оригинальное название: Conor McGregor: Notorious
Год выхода: 2017
Страна: Ирландия, Conor McGregor Sports & Entertainment
Продолжительность: 01:30:48
Перевод: Любительский (двухголосый закадровый) | RecentFilms
Жанр: Документальный, биография, спорт

Режиссер: Гэвин Фитджеральд

В ролях:
Хосе Альдо, Ди Девлин, Нейт Диас, Ариэль Хелвани, Джон Кавана, Конор МакГрегор, Катон Пендред, Оуэн Родди, Арнольд Шварцнеггер, Дана Уайт и другие

О фильме:
Фильм повествует о громком восхождении на Олимп ирландского бойца смешанных единоборств - Конора МакГрегора. Начинал паренёк в полнейшей бедноте. Он жил в мамином доме в гостевой комнате со своей девушкой. У него не было ни денег, ни влиятельных друзей - лишь талант и целеустремленность. Теперь Конор получает огромные гонорары и живет на полную катушку. Однако головокружительные результаты пришли не сразу. Долгих четыре года он шел к заветной цели, творя историю собственными руками - без страха и сомнений.



Семпл

Реклама: присутствует



Файл
Кодек: MPEG-4 AVC/H.264
Качество: WEBRip 720p
Видео: 1280x532, 23,976 fps, ~3944 Kbps, 0.242 bit/pixel
Звук:
Аудио rus: AC3, 48 kHz, 2 ch, 192 Kbps
Субтитры: отсутствуют

General
Unique ID : 247057558391049656889610747026148079005 (0xB9DD8E127703DB8AAC8CF8DDA272B59D)
Complete name : F:FilmsConor.McGregor.Notorious.2017.720p.WEBRip.RecentFilmsConor.McGregor.Notorious.2017.720p.WEBRip.RecentFilms.mkv
Format : Matroska
Format version : Version 4 / Version 2
File size : 2.63 GiB
Duration : 1h 30mn
Overall bit rate : 4 139 Kbps
Encoded date : UTC 2017-11-23 15:34:53
Writing application : mkvmerge v7.8.0 ('River Man') 64bit built on Mar 27 2015 16:31:37
Writing library : libebml v1.3.1 + libmatroska v1.4.2

Video
ID : 1
Format : AVC
Format/Info : Advanced Video Codec
Format profile : Main@L3.2
Format settings, CABAC : Yes
Format settings, ReFrames : 3 frames
Codec ID : V_MPEG4/ISO/AVC
Duration : 1h 30mn
Bit rate : 3 944 Kbps
Width : 1 280 pixels
Height : 532 pixels
Display aspect ratio : 2.40:1
Frame rate mode : Constant
Frame rate : 23.976 (24000/1001) fps
Standard : NTSC
Color space : YUV
Chroma subsampling : 4:2:0
Bit depth : 8 bits
Scan type : Progressive
Bits/(Pixel*Frame) : 0.242
Stream size : 2.50 GiB (95%)
Language : English
Default : Yes
Forced : No
Color range : Limited
Color primaries : BT.601 NTSC
Transfer characteristics : BT.601
Matrix coefficients : BT.601

Audio
ID : 2
Format : AC-3
Format/Info : Audio Coding 3
Mode extension : CM (complete main)
Format settings, Endianness : Big
Codec ID : A_AC3
Duration : 1h 30mn
Bit rate mode : Constant
Bit rate : 192 Kbps
Channel(s) : 2 channels
Channel positions : Front: L R
Sampling rate : 48.0 KHz
Frame rate : 31.250 fps (1536 spf)
Compression mode : Lossy
Stream size : 125 MiB (5%)
Default : Yes
Forced : No



Релиз от: RecentFilms


Вернуться к началу
 Профиль Отправить личное сообщение  
Ответить с цитатой  
  • Торрент
Автор: Titan Хэш: ---
Добавлен: 06 июл 2018, 22:34 Приватный: Нет (DHT включён)
Статус: Проверен
Размер: 2.63 ГБ (2 818 701 478 байт)
Изменил:
---
Скачали: 0 (Раздающих: 0%)
Причина:
---
Здоровье: 0%
Сидеров: 0 Личеров: 0
Скорость раздачи: 0 байт/сек Скорость скачивания: 0 байт/сек
Последний сидер: Нет Последний личер: Нет
Для скачивания торрента необходимо зарегистрироваться или войти на трекер.
Показать сообщения за:  Поле сортировки  
Начать новую тему Ответить на тему  [ 1 сообщение ] 


Кто сейчас на конференции

Сейчас этот форум просматривают: нет зарегистрированных пользователей и гости: 1


Вы не можете начинать темы
Вы не можете отвечать на сообщения
Вы не можете редактировать свои сообщения
Вы не можете удалять свои сообщения
Вы не можете добавлять вложения

Найти:
Перейти:  
cron
Создано на основе phpBB® Forum Software © phpBB Group
ppkBB3cker v.2.5 © 2008-2019 @ PPK | Icon Theme by Everaldo.com Design Studio
Русская поддержка phpBB
Ресурс не предоставляет электронные версии произведений, а занимается лишь коллекционированием и каталогизацией ссылок, присылаемых и публикуемых на форуме нашими читателями. Если вы являетесь правообладателем какого-либо представленного материала и не желаете чтобы ссылка на него находилась в нашем каталоге, свяжитесь с нами и мы незамедлительно удалим её. Файлы для обмена на трекере предоставлены пользователями сайта, и администрация не несёт ответственности за их содержание. Просьба не заливать файлы, защищенные авторскими правами, а также файлы нелегального содержания!