Jinta.ru

Полезный софт трекер





Начать новую тему Ответить на тему  [ 1 сообщение ] 
Автор Сообщение
СообщениеДобавлено: 01 июн 2019, 08:40 
Не в сети
VIP
Раздал: 879.17 МБ
Скачал: 5.66 ГБ
Ратио: None.


Зарегистрирован: 23 май 2018, 16:47
Сообщения: 177
Репортажи из будущего.
Абсолютное оружие


#777

Информация о фильме
Название: Репортажи из будущего. Абсолютное оружие
Год выхода: 2018
Страна: Россия
Студия: ООО "ГОЛД МЕДИУМ", ГТРК "Культура"
Продолжительность: ~ 00:39:15
Перевод: Не требуется

Жанр: Документальный, новые технологии

Режиссер: Виктор Ющенко

О фильме:
Что ожидает нас в будущем? Какими будут дома в XXI веке? Что придет на смену легковым автомобилям? Какой станет в будущем одежда? В моду войдет "умная одежда" – она станет выполнять роль гаджета. Научная фантастика становится жизнью, а киборги, телепатия и телекинез – объектами исследований университетов мира. Нейротехнологии могут кардинально изменить способы общения человека с компьютером и окружающим миром. Об этом – в репортажах из будущего.
Фильм рассказывает о перспективах развития различных видов вооружений в ближайшие 50 лет. Космические платформы для ракет, роботы на поле боя, универсальные солдаты, беспилотники, постепенно вытесняющие боевые самолеты, рельсотроны – пушки, в которых пороховой заряд заменен энергией электромагнитного поля.


Семпл

Файл
Кодек: AVC/H.264
Качество: DVB
Видео: 720x576@1047x576 (16:9) AVC (H.264) Main@L3.0, ~ 2448 kbps, 25fps
Звук: Русский 48 kHz, AC3 Dolby Digital, 2/0 (L,R) ch, ~192.00 kbps avg
Субтитры: Русские, отключаемые



Complete name : F:НаладкиSD-фильмыРепортажи из будущего_ Абсолютное оружие.mkv
Format : Matroska
Format version : Version 4 / Version 2
File size : 756 MiB
Duration : 39 min 15 s
Overall bit rate : 2 694 kb/s
Encoded date : UTC 2019-03-02 15:43:33
Writing application : mkvmerge v6.6.0 ('The Edge Of The In Between') built on Dec 1 2013 17:55:00
Writing library : libebml v1.3.0 + libmatroska v1.4.1

Video
ID : 1
Format : AVC
Format/Info : Advanced Video Codec
Format profile : Main@L3
Format settings : CABAC / 4 Ref Frames
Format settings, CABAC : Yes
Format settings, ReFrames : 4 frames
Codec ID : V_MPEG4/ISO/AVC
Duration : 39 min 15 s
Bit rate : 2 448 kb/s
Width : 720 pixels
Height : 576 pixels
Display aspect ratio : 16:9
Frame rate mode : Constant
Frame rate : 25.000 FPS
Standard : Component
Color space : YUV
Chroma subsampling : 4:2:0
Bit depth : 8 bits
Scan type : Interlaced
Scan type, store method : Separated fields
Scan order : Top Field First
Bits/(Pixel*Frame) : 0.236
Stream size : 688 MiB (91%)
Default : Yes
Forced : No
Color range : Limited
Color primaries : BT.601 PAL
Transfer characteristics : BT.470 System B, BT.470 System G
Matrix coefficients : BT.470 System B, BT.470 System G

Audio
ID : 2
Format : AC-3
Format/Info : Audio Coding 3
Codec ID : A_AC3
Duration : 39 min 15 s
Bit rate mode : Constant
Bit rate : 192 kb/s
Channel(s) : 2 channels
Channel positions : Front: L R
Sampling rate : 48.0 kHz
Frame rate : 31.250 FPS (1536 SPF)
Bit depth : 16 bits
Compression mode : Lossy
Stream size : 53.9 MiB (7%)
Language : Russian
Service kind : Complete Main
Default : Yes
Forced : No

Text
ID : 3
Format : UTF-8
Codec ID : S_TEXT/UTF8
Codec ID/Info : UTF-8 Plain Text
Language : Russian
Default : No
Forced : No


Релиз от: kyba


Вернуться к началу
 Профиль Отправить личное сообщение  
Ответить с цитатой  
  • Торрент
Автор: Rufus Хэш: ---
Добавлен: 01 июн 2019, 08:40 Приватный: Нет (DHT включён)
Статус: Проверен
Размер: 756.49 МБ (793 235 601 байт)
Изменил:
---
Скачали: 315 (Раздающих: 14%)
Причина:
---
Здоровье: 100%
Сидеров: 43 Личеров: 3
Скорость раздачи: 0 байт/сек Скорость скачивания: 0 байт/сек
Последний сидер: 2 месяца 6 дней 21 час 17 минут 37 секунд назад Последний личер: 2 месяца 6 дней 21 час 17 минут 37 секунд назад
Для скачивания торрента необходимо зарегистрироваться или войти на трекер.
Показать сообщения за:  Поле сортировки  
Начать новую тему Ответить на тему  [ 1 сообщение ] 


Кто сейчас на конференции

Сейчас этот форум просматривают: нет зарегистрированных пользователей и гости: 1


Вы не можете начинать темы
Вы не можете отвечать на сообщения
Вы не можете редактировать свои сообщения
Вы не можете удалять свои сообщения
Вы не можете добавлять вложения

Найти:
Перейти:  
cron
Создано на основе phpBB® Forum Software © phpBB Group
ppkBB3cker v.2.5 © 2008-2019 @ PPK | Icon Theme by Everaldo.com Design Studio
Русская поддержка phpBB
Ресурс не предоставляет электронные версии произведений, а занимается лишь коллекционированием и каталогизацией ссылок, присылаемых и публикуемых на форуме нашими читателями. Если вы являетесь правообладателем какого-либо представленного материала и не желаете чтобы ссылка на него находилась в нашем каталоге, свяжитесь с нами и мы незамедлительно удалим её. Файлы для обмена на трекере предоставлены пользователями сайта, и администрация не несёт ответственности за их содержание. Просьба не заливать файлы, защищенные авторскими правами, а также файлы нелегального содержания!