Jinta.ru

Полезный софт трекер





Начать новую тему Ответить на тему  [ 1 сообщение ] 
Автор Сообщение
СообщениеДобавлено: 11 ноя 2020, 22:15 
Не в сети
Релизер
Аватара пользователя
Раздал: 128 ГБ
Скачал: 82.88 МБ
Ратио: None.


Зарегистрирован: 22 май 2018, 22:33
Сообщения: 531
Сердце дракона: Возмездие / Dragonheart Vengeance


#777

Год выпуска: 2020
Страна: США
Продолжительность: 01:36:53
Перевод: Профессиональный (многоголосый закадровый) | ТВ3
Субтитры: нет
Жанр: фантастика, фэнтези, боевик, драма, приключения

Режиссер: Иван Сильвестрини / Ivan Silvestrini

В ролях:
Джозеф Миллсон, Джек Кэйн, Артуро Муселли, Каролина Карлссон, Там Уильямс, Ричард Эштон, Росс О'Хеннесси, Замок Фабьен Пиолини, Хелена Бонем Картер, Камерон Джек

Описание:
Лукас — молодой мужчина, который был абсолютно счастливым человеком. Он воспитывал детей вместе с любимой женой и имел неплохой доход от фермерского хозяйства. Но однажды на их ферму напали неизвестные люди, которые не только разгромили все вокруг, но и убили семью Лукаса. Горем убитый мужчина поклялся сделать все возможное, чтобы отомстить за смерть любимых людей. Он отправился в путешествие, надеясь отыскать убийц. По пути герой встречает новых друзей, готовых помочь ему в столь непростом деле. Среди них оказывается опытный наемник Дарий и настоящий дракон. Впереди их ждут очень опасные приключения...

Сэмпл: http://sendfile.su/1573340

Качество видео: BDRip-AVC
Формат видео: MKV
Видео: AVC, 1152x648, 16:9, 23.976fps, ~1954 kb/s
Аудио: AC3, 48Khz, 192Kbps, 2ch - MVO | ТВ3
Код:
---[Information] [20.08.2020 14:35:15] y4m [info]: 1152x648p 1:1 @ 24000/1001 fps (cfr)
---[Information] [20.08.2020 14:35:15] x264 [info]: using SAR=1/1
---[Information] [20.08.2020 14:35:15] x264 [info]: using cpu capabilities: MMX2 SSE2Fast SSSE3 SSE4.2 AVX FMA3 BMI2 AVX2
---[Information] [20.08.2020 14:35:15] x264 [info]: profile Progressive High, level 4.1, 4:2:0, 8-bit
[b]---[Information] [20.08.2020 16:13:26] x264 [info]: frame I:1194  Avg QP:16.42  size: 98319
---[Information] [20.08.2020 16:13:26] x264 [info]: frame P:35002 Avg QP:19.75  size: 21745
---[Information] [20.08.2020 16:13:26] x264 [info]: frame B:103181 Avg QP:22.02  size:  5213
[/b]---[Information] [20.08.2020 16:13:26] x264 [info]: consecutive B-frames:  4.9%  4.7% 12.1% 15.9% 19.6% 32.5%  6.6%  3.7%
---[Information] [20.08.2020 16:13:26] x264 [info]: mb I  I16..4: 14.8% 69.1% 16.1%
---[Information] [20.08.2020 16:13:26] x264 [info]: mb P  I16..4:  1.5%  8.5%  1.0%  P16..4: 46.2% 13.3% 13.7%  0.5%  0.2%    skip:15.0%
---[Information] [20.08.2020 16:13:26] x264 [info]: mb B  I16..4:  0.1%  0.6%  0.1%  B16..8: 39.3%  5.0%  1.4%  direct: 3.0%  skip:50.6%  L0:46.0% L1:48.2% BI: 5.8%
---[Information] [20.08.2020 16:13:26] x264 [info]: 8x8 transform intra:75.5% inter:69.5%
---[Information] [20.08.2020 16:13:26] x264 [info]: direct mvs  spatial:96.4% temporal:3.6%
---[Information] [20.08.2020 16:13:26] x264 [info]: coded y,uvDC,uvAC intra: 77.1% 76.0% 39.6% inter: 13.8% 18.0% 1.2%
---[Information] [20.08.2020 16:13:26] x264 [info]: i16 v,h,dc,p: 18% 14%  7% 61%
---[Information] [20.08.2020 16:13:26] x264 [info]: i8 v,h,dc,ddl,ddr,vr,hd,vl,hu: 10%  6%  3% 11% 17% 15% 15% 12% 12%
---[Information] [20.08.2020 16:13:26] x264 [info]: i4 v,h,dc,ddl,ddr,vr,hd,vl,hu:  9%  5%  3% 10% 17% 16% 15% 12% 13%
---[Information] [20.08.2020 16:13:26] x264 [info]: i8c dc,h,v,p: 35% 26% 20% 19%
---[Information] [20.08.2020 16:13:26] x264 [info]: Weighted P-Frames: Y:6.8% UV:4.9%
---[Information] [20.08.2020 16:13:26] x264 [info]: ref P L0: 56.5% 13.3% 12.1%  5.3%  4.0%  3.4%  2.9%  2.0%  0.4%  0.0%
---[Information] [20.08.2020 16:13:26] x264 [info]: ref B L0: 79.9%  9.2%  5.0%  2.3%  1.9%  1.2%  0.5%
---[Information] [20.08.2020 16:13:26] x264 [info]: ref B L1: 95.4%  4.6%
---[Information] [20.08.2020 16:13:26] x264 [info]: kb/s:1949.22
Код:
General
Format                         : Matroska
Format version                 : Version 2
File size                      : 1.45 GiB
Duration                       : 1 h 36 min
Overall bit rate               : 2 143 kb/s
Encoded date                   : UTC 2020-08-20 06:13:27
Writing application            : mkvmerge v42.0.0 ('Overtime') 64-bit
Writing library                : libebml v1.3.10 + libmatroska v1.5.2
Video
ID                             : 1
Format                         : AVC
Format/Info                    : Advanced Video Codec
Format profile                 : High@L4.1
Format settings                : CABAC / 8 Ref Frames
Format settings, CABAC         : Yes
Format settings, Reference fra : 8 frames
Codec ID                       : V_MPEG4/ISO/AVC
Duration                       : 1 h 36 min
Bit rate                       : 1 954 kb/s
Width                          : 1 152 pixels
Height                         : 648 pixels
Display aspect ratio           : 16:9
Frame rate mode                : Constant
Frame rate                     : 23.976 (24000/1001) FPS
Color space                    : YUV
Chroma subsampling             : 4:2:0
Bit depth                      : 8 bits
Scan type                      : Progressive
Bits/(Pixel*Frame)             : 0.109
Stream size                    : 1.32 GiB (91%)
Writing library                : x264 core 157 r2969 d4099dd
Encoding settings              : cabac=1 / ref=8 / deblock=1:0:0 / analyse=0x3:0x133 / me=umh / subme=9 / psy=1 / psy_rd=1.00:0.00 / mixed_ref=1 / me_range=24 / chroma_me=1 / trellis=2 / 8x8dct=1 / cqm=0 / deadzone=21,11 / fast_pskip=1 / chroma_qp_offset=-2 / threads=12 / lookahead_threads=2 / sliced_threads=0 / nr=0 / decimate=1 / interlaced=0 / bluray_compat=0 / constrained_intra=0 / bframes=7 / b_pyramid=2 / b_adapt=2 / b_bias=0 / direct=3 / weightb=1 / open_gop=0 / weightp=2 / keyint=240 / keyint_min=23 / scenecut=40 / intra_refresh=0 / rc_lookahead=60 / rc=2pass / mbtree=1 / bitrate=1954 / ratetol=1.0 / qcomp=0.60 / qpmin=0 / qpmax=69 / qpstep=4 / cplxblur=20.0 / qblur=0.5 / vbv_maxrate=62500 / vbv_bufsize=78125 / nal_hrd=none / filler=0 / ip_ratio=1.40 / aq=1:1.00
Default                        : Yes
Forced                         : No
Audio
ID                             : 2
Format                         : AC-3
Format/Info                    : Audio Coding 3
Commercial name                : Dolby Digital
Codec ID                       : A_AC3
Duration                       : 1 h 36 min
Bit rate mode                  : Constant
Bit rate                       : 192 kb/s
Channel(s)                     : 2 channels
Channel layout                 : L R
Sampling rate                  : 48.0 kHz
Frame rate                     : 31.250 FPS (1536 SPF)
Compression mode               : Lossy
Stream size                    : 133 MiB (9%)
Language                       : Russian
Service kind                   : Complete Main
Default                        : Yes
Forced                         : No



Вернуться к началу
 Профиль Отправить личное сообщение  
Ответить с цитатой  
  • Торрент
Автор: Saturn Хэш: ---
Добавлен: 11 ноя 2020, 22:15 Приватный: Нет (DHT включён)
Статус: Проверен
Размер: 1.45 ГБ (1 557 147 521 байт)
Изменил:
---
Скачали: 0 (Раздающих: 100%)
Причина:
---
Здоровье: 100%
Сидеров: 34 Личеров: 11
Скорость раздачи: 0 байт/сек Скорость скачивания: 0 байт/сек
Последний сидер: 3 месяца 3 дня 2 часа 47 минут 17 секунд назад Последний личер: 3 месяца 3 дня 2 часа 47 минут 17 секунд назад
Для скачивания торрента необходимо зарегистрироваться или войти на трекер.
Показать сообщения за:  Поле сортировки  
Начать новую тему Ответить на тему  [ 1 сообщение ] 


Кто сейчас на конференции

Сейчас этот форум просматривают: нет зарегистрированных пользователей и гости: 2


Вы не можете начинать темы
Вы не можете отвечать на сообщения
Вы не можете редактировать свои сообщения
Вы не можете удалять свои сообщения
Вы не можете добавлять вложения

Найти:
Перейти:  
cron
Создано на основе phpBB® Forum Software © phpBB Group
ppkBB3cker v.2.5 © 2008-2020 @ PPK | Icon Theme by Everaldo.com Design Studio
Русская поддержка phpBB
[ Time : 0.055s | 15 Queries | GZIP : On ]
Ресурс не предоставляет электронные версии произведений, а занимается лишь коллекционированием и каталогизацией ссылок, присылаемых и публикуемых на форуме нашими читателями. Если вы являетесь правообладателем какого-либо представленного материала и не желаете чтобы ссылка на него находилась в нашем каталоге, свяжитесь с нами и мы незамедлительно удалим её. Файлы для обмена на трекере предоставлены пользователями сайта, и администрация не несёт ответственности за их содержание. Просьба не заливать файлы, защищенные авторскими правами, а также файлы нелегального содержания!