Jinta.ru

Полезный софт трекер





Начать новую тему Ответить на тему  [ 1 сообщение ] 
Автор Сообщение
СообщениеДобавлено: 05 янв 2019, 22:27 
Не в сети
VIP
Раздал: 879.17 МБ
Скачал: 5.66 ГБ
Ратио: None.


Зарегистрирован: 23 май 2018, 16:47
Сообщения: 164
Под Сильвер-Лэйк / Under the Silver Lake


#777

Год выпуска: 2018
Страна: США
Продолжительность: 02:19:14
Перевод: Субтитры
Субтитры: Полные русские - отдельно
Оригинальная аудиодорожка: Английский
Жанр: триллер, драма, комедия, криминал, детектив, фильм-нуар

Режиссер: Дэвид Роберт Митчелл / David Robert Mitchell

В ролях:
Эндрю Гарфилд, Венди Ванден Хювел, Дебора Геффнер, Райли Кио, Рики Линдхоум, Джаннин Кота, Крис Гэнн, Калли Эрнандес, Джессика Макинсон, Риз Хартвиг

Описание:
Сэм знакомится с девушкой, которая на следующий день исчезает при загадочных обстоятельствах. Теперь он одержим идеей непременно отыскать её, и пытается обнаружить хоть какие-то зацепки, во всем, что он видит и слышит. Неожиданно он находит что-то вроде кода или цепочки тайных посланий. Открывая каждое последующее сообщение, для него всё очевиднее становится, что он оказался внутри глобального заговора.

Сэмпл: http://multi-up.com/1219438

Каннский кинофестиваль: 2018 год
Номинации (1): Золотая пальмовая ветвь


Качество видео: HDRip
Исходник: Under.the.Silver.Lake.2018.1080p.BluRay.x264-PSYCHD[rarbg]
Формат видео: AVI
Видео: 720x304 (2.37:1), 23.976 fps, XviD build 65 ~1302 kbps avg, 0.25 bit/pixel
Аудио: 48 kHz, AC3 Dolby Digital, 2/0 (L,R) ch, ~192 kbps

1
1
00:00:30,040 --> 00:00:34,311
ОСТОРОЖНО, УБИЙЦА СОБАК
2
00:01:43,739 --> 00:01:47,843
Кто...
Иисус и невесты Дракулы?
3
00:02:31,787 --> 00:02:35,190
Ты давно просрочил оплату за квартиру.
У тебя 5 дней чтобы заплатить или съехать.
4
00:03:06,530 --> 00:03:09,891
- Привет, мам.
- <i>Привет дорогой, как ты?</i>
5
00:03:09,992 --> 00:03:12,310
- Я в порядке.
- <i>Хорошо.</i>
6
00:03:12,411 --> 00:03:17,231
- <i>Хорошо. Ты на работе?</i>
- Да, сегодня много работы.
7
00:03:17,332 --> 00:03:22,445
<i>Я хотела сказать тебе:
Седьмое небо показывают на TCM сегодня вечером.</i>
8
00:03:22,546 --> 00:03:28,618
- Мам, у меня нет кабельного.
- <i>Чёрт, очень жаль.</i>
9
00:03:28,719 --> 00:03:32,455
<i>Это отличное кино с Джанет Гейнор 1927 года.</i>
10
00:03:32,556 --> 00:03:37,210
- Она одна из твоих любимиц?
- <i>Джанет Гейнор? Да!</i>
11
00:03:37,311 --> 00:03:40,838
<i>С самого детства,
Я всегда любила её.</i>
12
00:03:40,939 --> 00:03:45,085
- <i>Она такая талантливая и красивая...</i>
- Да. Ну...
13
00:03:46,028 --> 00:03:48,262
- Мне лучше вернуться к работе.
- <i>Ok.</i>
14
00:03:48,363 --> 00:03:52,642
- <i>Крепко обнимаю тебя по телефону.</i>
- Спасибо.
15
00:03:52,743 --> 00:03:54,477
- Люблю тебя.
- <i>Я тебя люблю.</i>
16
00:03:54,578 --> 00:03:55,978
- <i>Удачной недели, дорогой.</i>
- Пока.
17
00:03:56,079 --> 00:03:57,389
- <i>Пока.</i>
- Пока.
18
00:04:13,972 --> 00:04:15,782
За мной мой маленький щеночек.
19
00:04:16,808 --> 00:04:18,785
Время для купания.
20
00:04:33,033 --> 00:04:35,886
Не могли бы вы сделать музыку тише?
21
00:04:41,166 --> 00:04:42,768
Это минимальная громкость.
22
00:04:43,085 --> 00:04:44,561
Спасибо большое.
23
00:04:48,131 --> 00:04:51,826
Ко мне, Кока Колла.
Мы любим эту песню, не так ли?
Format : AVI
Format/Info : Audio Video Interleave
File size : 1.46 GiB
Duration : 2 h 19 min
Overall bit rate : 1 504 kb/s
Writing application : VirtualDubMod 1.5.10.3 | http://www.virtualdub-fr.org || (build 2550/release)
Writing library : VirtualDubMod build 2550/release
Video
ID : 0
Format : MPEG-4 Visual
Format profile : Advanced Simple@L5
Format settings : BVOP1 / Custom Matrix
Format settings, BVOP : 1
Format settings, QPel : No
Format settings, GMC : No warppoints
Format settings, Matrix : Custom
Codec ID : XVID
Codec ID/Hint : XviD
Duration : 2 h 19 min
Bit rate : 1 302 kb/s
Width : 720 pixels
Height : 304 pixels
Display aspect ratio : 2.35:1
Frame rate : 23.976 (24000/1001) FPS
Original frame rate : 23.979 FPS
Color space : YUV
Chroma subsampling : 4:2:0
Bit depth : 8 bits
Scan type : Progressive
Compression mode : Lossy
Bits/(Pixel*Frame) : 0.248
Stream size : 1.27 GiB (87%)
Writing library : XviD 65
Audio
ID : 1
Format : AC-3
Format/Info : Audio Coding 3
Commercial name : Dolby Digital
Codec ID : 2000
Duration : 2 h 19 min
Bit rate mode : Constant
Bit rate : 192 kb/s
Channel(s) : 2 channels
Channel positions : Front: L R
Sampling rate : 48.0 kHz
Frame rate : 31.250 FPS (1536 SPF)
Bit depth : 16 bits
Compression mode : Lossy
Stream size : 191 MiB (13%)
Alignment : Split accross interleaves
Interleave, duration : 42 ms (1.00 video frame)
Interleave, preload duratio : 500 ms
Service kind : Complete Main


Вернуться к началу
 Профиль Отправить личное сообщение  
Ответить с цитатой  
  • Торрент
Автор: Rufus Хэш: ---
Добавлен: 05 янв 2019, 22:27 Приватный: Нет (DHT включён)
Статус: Проверен
Размер: 1.46 ГБ (1 570 399 142 байт)
Изменил:
---
Скачали: 0 (Раздающих: 100%)
Причина:
---
Здоровье: 100%
Сидеров: 34 Личеров: 11
Скорость раздачи: 0 байт/сек Скорость скачивания: 0 байт/сек
Последний сидер: 5 месяцев 17 дней 18 часов 26 минут 19 секунд назад Последний личер: 5 месяцев 17 дней 18 часов 26 минут 19 секунд назад
Для скачивания торрента необходимо зарегистрироваться или войти на трекер.
Показать сообщения за:  Поле сортировки  
Начать новую тему Ответить на тему  [ 1 сообщение ] 


Кто сейчас на конференции

Сейчас этот форум просматривают: нет зарегистрированных пользователей и гости: 3


Вы не можете начинать темы
Вы не можете отвечать на сообщения
Вы не можете редактировать свои сообщения
Вы не можете удалять свои сообщения
Вы не можете добавлять вложения

Найти:
Перейти:  
cron
Создано на основе phpBB® Forum Software © phpBB Group
ppkBB3cker v.2.5 © 2008-2019 @ PPK | Icon Theme by Everaldo.com Design Studio
Русская поддержка phpBB
Ресурс не предоставляет электронные версии произведений, а занимается лишь коллекционированием и каталогизацией ссылок, присылаемых и публикуемых на форуме нашими читателями. Если вы являетесь правообладателем какого-либо представленного материала и не желаете чтобы ссылка на него находилась в нашем каталоге, свяжитесь с нами и мы незамедлительно удалим её. Файлы для обмена на трекере предоставлены пользователями сайта, и администрация не несёт ответственности за их содержание. Просьба не заливать файлы, защищенные авторскими правами, а также файлы нелегального содержания!