Jinta.ru

Полезный софт трекер





Начать новую тему Ответить на тему  [ 1 сообщение ] 
Автор Сообщение
СообщениеДобавлено: 05 янв 2019, 22:36 
Не в сети
VIP
Раздал: 879.17 МБ
Скачал: 5.66 ГБ
Ратио: None.


Зарегистрирован: 23 май 2018, 16:47
Сообщения: 164
Исчезновение / The Vanishing


#777

Год выпуска: 2018
Страна: Великобритания
Продолжительность: 01:47:31
Перевод: Любительский ( двухголосый закадровый) - (Horizon Studio)
Субтитры: нет
Оригинальная аудиодорожка: нет
Жанр: Триллер, мистика, драма

Режиссер: Кристоффер Нюхольм / Kristoffer Nyholm

В ролях:
Джерард Батлер, Питер Муллан, Оулавюр Дарри Оулафссон, Гэри Льюис, Сёрен Маллинг, Коннор Суинделлс, Эмма Кинг, Родерик Гилкинсон, Кен Друри, Джон Тейлор

Описание:
Смотрители маяка Джеймс, Томас и Дональд были немногословными, крепкими и неприхотливыми ребятами. В один прекрасный день они нашли на острове клад — ящик золота, немного подумали, и решили его поделить. Они забыли известную истину — у золота всегда найдется хозяин — и это редко бывают тихие и застенчивые люди. А спустя несколько дней на острове не осталось никого…
Фильм основан на реальной истории бесследного исчезновения трех смотрителей маяка на островах Фланнан в 1900 году. Остановившиеся часы, ни следов крови, ни посиневших и разбухших трупов… Тайна исчезновения этих людей до сих пор не раскрыта…


Сэмпл: http://multi-up.com/1219487

Качество видео: WEB-DLRip
Исходник: The.Vanishing.2018.1080p.WEB-DL.DD5.1.H264
Формат видео: AVI
Видео: 720x304 (2.37:1), 23.976 fps, XviD build 65 ~1742 kbps avg, 0.33 bit/pixel
Аудио RUS: 48 kHz, AC3 Dolby Digital, 2/0 (L,R) ch, ~192 kbps - (Horizon Studio)

Format : AVI
Format/Info : Audio Video Interleave
File size : 1.46 GiB
Duration : 1 h 47 min
Overall bit rate : 1 944 kb/s
Writing application : VirtualDubMod 1.5.10.2 (build 2540/release)
Writing library : VirtualDubMod build 2540/release
Video
ID : 0
Format : MPEG-4 Visual
Format profile : Advanced Simple@L5
Format settings : BVOP1 / Custom Matrix
Format settings, BVOP : 1
Format settings, QPel : No
Format settings, GMC : No warppoints
Format settings, Matrix : Custom
Codec ID : XVID
Codec ID/Hint : XviD
Duration : 1 h 47 min
Bit rate : 1 743 kb/s
Width : 720 pixels
Height : 304 pixels
Display aspect ratio : 2.35:1
Frame rate : 23.976 (24000/1001) FPS
Original frame rate : 23.979 FPS
Color space : YUV
Chroma subsampling : 4:2:0
Bit depth : 8 bits
Scan type : Progressive
Compression mode : Lossy
Bits/(Pixel*Frame) : 0.332
Stream size : 1.31 GiB (90%)
Writing library : XviD 65
Audio
ID : 1
Format : AC-3
Format/Info : Audio Coding 3
Commercial name : Dolby Digital
Codec ID : 2000
Duration : 1 h 47 min
Bit rate mode : Constant
Bit rate : 192 kb/s
Channel(s) : 2 channels
Channel positions : Front: L R
Sampling rate : 48.0 kHz
Frame rate : 31.250 FPS (1536 SPF)
Bit depth : 16 bits
Compression mode : Lossy
Stream size : 148 MiB (10%)
Alignment : Split accross interleaves
Interleave, duration : 42 ms (1.00 video frame)
Interleave, preload duratio : 500 ms
Service kind : Complete Main


Вернуться к началу
 Профиль Отправить личное сообщение  
Ответить с цитатой  
  • Торрент
Автор: Rufus Хэш: ---
Добавлен: 05 янв 2019, 22:36 Приватный: Нет (DHT включён)
Статус: Проверен
Размер: 1.46 ГБ (1 568 051 200 байт)
Изменил:
---
Скачали: 0 (Раздающих: 100%)
Причина:
---
Здоровье: 100%
Сидеров: 34 Личеров: 11
Скорость раздачи: 0 байт/сек Скорость скачивания: 0 байт/сек
Последний сидер: 5 месяцев 18 дней 11 часов 48 минут 34 секунды назад Последний личер: 5 месяцев 18 дней 11 часов 48 минут 34 секунды назад
Для скачивания торрента необходимо зарегистрироваться или войти на трекер.
Показать сообщения за:  Поле сортировки  
Начать новую тему Ответить на тему  [ 1 сообщение ] 


Кто сейчас на конференции

Сейчас этот форум просматривают: нет зарегистрированных пользователей и гости: 2


Вы не можете начинать темы
Вы не можете отвечать на сообщения
Вы не можете редактировать свои сообщения
Вы не можете удалять свои сообщения
Вы не можете добавлять вложения

Найти:
Перейти:  
cron
Создано на основе phpBB® Forum Software © phpBB Group
ppkBB3cker v.2.5 © 2008-2019 @ PPK | Icon Theme by Everaldo.com Design Studio
Русская поддержка phpBB
Ресурс не предоставляет электронные версии произведений, а занимается лишь коллекционированием и каталогизацией ссылок, присылаемых и публикуемых на форуме нашими читателями. Если вы являетесь правообладателем какого-либо представленного материала и не желаете чтобы ссылка на него находилась в нашем каталоге, свяжитесь с нами и мы незамедлительно удалим её. Файлы для обмена на трекере предоставлены пользователями сайта, и администрация не несёт ответственности за их содержание. Просьба не заливать файлы, защищенные авторскими правами, а также файлы нелегального содержания!