Jinta.ru

Полезный софт трекер





Начать новую тему Ответить на тему  [ 1 сообщение ] 
Автор Сообщение
СообщениеДобавлено: 08 янв 2019, 06:41 
Не в сети
VIP
Раздал: 879.17 МБ
Скачал: 5.66 ГБ
Ратио: None.


Зарегистрирован: 23 май 2018, 16:47
Сообщения: 154
Завтрак на обочине / When Strangers Appear


#777

Информация
Название: Завтрак на обочине
Оригинальное название: When Strangers Appear
Год выпуска: 2001
Выпущено: Австралия, Новая Зеландия, США, Beyond Films, Midnight Film Productions Limited, Persona Non Grata Films
Продолжительность: 01:40:24
Перевод: Профессиональный многоголосый
Оригинальная аудио-дорожка: Нет
Субтитры: Нет
Жанр: Триллер, боевик, детектив

Режиссёр: Скотт Рейнольдс / Scott Reynolds

В ролях:
Рада Митчелл, Джош Лукас, Бэрри Уотсон, Кевин Андерсон, Джонатан Блик, Эрин Уилсон, Майкл Лоу, Стивен Рэй, Дра МакКэй, Серафин Рочери

О фильме:
Один раненый. Группа таинственных незнакомцев. У каждого своя история. Кому верить? Когда перепуганный, истекающий кровью Мэтт входит в затерянное кафе, которым владеет Бет, там закручивается серия загадочных событий. Трое внешне безвредных незнакомцев прибывают в кафе, но, как утверждает Мэтт, они ищут его, чтобы убить. Бет решает спасти Мэтта, но его последующее исчезновение и дальнейшее общение с гостями только еще больше запутывают ситуацию, и Бет все глубже и глубже погружается в пучину их опасных игр.




Релиз от: ivandubskoj

Файл
Качество видео: WEB-DLRip
Контейнер: AVI
Видео кодек: XviD
Аудио кодек: AC3
Видео: 720x304 (2.35:1), 1750 Кбит/с, 23,976 кадр/с, 0.333 bit/pix
Аудио: Русский, AC3, 48000 Гц, 192 Кбит/с, 2 канала - MVO
General
Complete name : When.Strangers.Appear.2001.WEB-DLRip.avi
Format : AVI
Format/Info : Audio Video Interleave
File size : 1.37 GiB
Duration : 1h 40mn
Overall bit rate : 1 950 Kbps
Writing application : VirtualDubMod 1.5.10.3 | http://www.virtualdub-fr.org || (build 2550/release)
Writing library : VirtualDubMod build 2550/release

Video
ID : 0
Format : MPEG-4 Visual
Format profile : Advanced [email protected]
Format settings, BVOP : 1
Format settings, QPel : No
Format settings, GMC : No warppoints
Format settings, Matrix : Custom
Codec ID : XVID
Codec ID/Hint : XviD
Duration : 1h 40mn
Bit rate : 1 750 Kbps
Width : 720 pixels
Height : 304 pixels
Display aspect ratio : 2.35:1
Frame rate : 23.976 fps
Color space : YUV
Chroma subsampling : 4:2:0
Bit depth : 8 bits
Scan type : Progressive
Compression mode : Lossy
Bits/(Pixel*Frame) : 0.333
Stream size : 1.23 GiB (90%)
Writing library : XviD 73

Audio
ID : 1
Format : AC-3
Format/Info : Audio Coding 3
Mode extension : CM (complete main)
Codec ID : 2000
Duration : 1h 40mn
Bit rate mode : Constant
Bit rate : 192 Kbps
Channel(s) : 2 channels
Channel positions : Front: L R
Sampling rate : 48.0 KHz
Bit depth : 16 bits
Compression mode : Lossy
Stream size : 138 MiB (10%)
Alignment : Split accross interleaves
Interleave, duration : 64 ms (1.53 video frames)
Interleave, preload duration : 500 ms


Вернуться к началу
 Профиль Отправить личное сообщение  
Ответить с цитатой  
  • Торрент
Автор: Rufus Хэш: ---
Добавлен: 08 янв 2019, 06:41 Приватный: Нет (DHT включён)
Статус: Проверен
Размер: 1.37 ГБ (1 468 276 736 байт)
Изменил:
---
Скачали: 0 (Раздающих: 100%)
Причина:
---
Здоровье: 100%
Сидеров: 2 Личеров: 0
Скорость раздачи: 0 байт/сек Скорость скачивания: 0 байт/сек
Последний сидер: 4 месяца 18 дней 10 минут 34 секунды назад Последний личер: Нет
Для скачивания торрента необходимо зарегистрироваться или войти на трекер.
Показать сообщения за:  Поле сортировки  
Начать новую тему Ответить на тему  [ 1 сообщение ] 


Кто сейчас на конференции

Сейчас этот форум просматривают: нет зарегистрированных пользователей и гости: 1


Вы не можете начинать темы
Вы не можете отвечать на сообщения
Вы не можете редактировать свои сообщения
Вы не можете удалять свои сообщения
Вы не можете добавлять вложения

Найти:
Перейти:  
cron
Создано на основе phpBB® Forum Software © phpBB Group
ppkBB3cker v.2.5 © 2008-2019 @ PPK | Icon Theme by Everaldo.com Design Studio
Русская поддержка phpBB
Ресурс не предоставляет электронные версии произведений, а занимается лишь коллекционированием и каталогизацией ссылок, присылаемых и публикуемых на форуме нашими читателями. Если вы являетесь правообладателем какого-либо представленного материала и не желаете чтобы ссылка на него находилась в нашем каталоге, свяжитесь с нами и мы незамедлительно удалим её. Файлы для обмена на трекере предоставлены пользователями сайта, и администрация не несёт ответственности за их содержание. Просьба не заливать файлы, защищенные авторскими правами, а также файлы нелегального содержания!