Jinta.ru

Полезный софт трекер





Начать новую тему Ответить на тему  [ 1 сообщение ] 
Автор Сообщение
СообщениеДобавлено: 02 ноя 2020, 21:40 
Не в сети
Администратор
Аватара пользователя
Раздал: 8.44 ТБ
Скачал: 976.16 ГБ
Ратио: 1160.769


Зарегистрирован: 07 окт 2016, 01:02
Сообщения: 5978
СуперБобровы. Народные мстители


#777

Год выпуска: 2017
Продолжительность: 01:29:12
Жанр: комедия, семейный

Режиссёр: Дмитрий Дьяченко

В ролях:
Павел Деревянко, Роман Мадянов, Владимир Толоконников, Оксана Акиньшина, Ирина Пегова, Даниил Вахрушев, Елена Валюшкина, Роман Курцын, Стас Оксаний, Владимир Паршенков

Описание:
Действие картины начинается в Таиланде, где семья Бобровых скрылась от правосудия. Теперь им приходится выступать в цирке-шапито, демонстрируя туристам свои суперспособности. Быть «цирковыми обезьянками» семейству явно не по душе — все хотят домой, на Родину. У Олега и Светы разлад в отношениях: она мечтает о детях, а Олегу совсем не до этого. И вот очередной скандал семьи: Олег уходит, хлопнув дверью. Возвращается, а Бобровых нет. Они уехали. Олегу приходится отправиться в Россию. На родине ему предстоит не только вновь завоевать сердце Светы, но и объединить суперсилы семейства Бобровых в схватке со злодеями планетарного масштаба, сделав из нерадивых родственников настоящих супергероев.

Кинопоиск
Sample

Качество видео: WEB-DLRip
Формат видео: AVI
Видео: 720x304 (2.37:1), 24.000 fps, XviD build 73 ~1952 kbps avg, 0.37 bit/pixel
Аудио: 48 kHz, AC3 Dolby Digital, 3/2 (L,C,R,l,r) + LFE ch, ~384 kbps
General
Complete name : D:\СуперБобровы. Народные мстители. WEB-DLRip.avi
Format : AVI
Format/Info : Audio Video Interleave
File size : 1.46 GiB
Duration : 1 h 29 min
Overall bit rate : 2 346 kb/s
Writing application : VirtualDubMod 1.5.10.3 | http://www.virtualdub-fr.org || (build 2550/release)
Writing library : VirtualDubMod build 2550/release
Video
ID : 0
Format : MPEG-4 Visual
Format profile : Advanced Simple@L5
Format settings : BVOP1
Format settings, BVOP : 1
Format settings, QPel : No
Format settings, GMC : No warppoints
Format settings, Matrix : Default (MPEG)
Codec ID : XVID
Codec ID/Hint : XviD
Duration : 1 h 29 min
Bit rate : 1 952 kb/s
Width : 720 pixels
Height : 304 pixels
Display aspect ratio : 2.35:1
Frame rate : 24.000 FPS
Color space : YUV
Chroma subsampling : 4:2:0
Bit depth : 8 bits
Scan type : Progressive
Compression mode : Lossy
Bits/(Pixel*Frame) : 0.372
Stream size : 1.22 GiB (83%)
Writing library : XviD 73
Audio
ID : 1
Format : AC-3
Format/Info : Audio Coding 3
Codec ID : 2000
Duration : 1 h 29 min
Bit rate mode : Constant
Bit rate : 384 kb/s
Channel(s) : 6 channels
Channel positions : Front: L C R, Side: L R, LFE
Sampling rate : 48.0 kHz
Frame rate : 31.250 FPS (1536 SPF)
Bit depth : 16 bits
Compression mode : Lossy
Stream size : 245 MiB (16%)
Alignment : Split accross interleaves
Interleave, duration : 42 ms (1.00 video frame)
Interleave, preload duratio : 500 ms
Service kind : Complete Main




Вернуться к началу
 Профиль Отправить личное сообщение  
Ответить с цитатой  
  • Торрент
Автор: Titan Хэш: ---
Добавлен: 02 ноя 2020, 21:40 Приватный: Нет (DHT включён)
Статус: Проверен
Размер: 1.46 ГБ (1 569 480 704 байт)
Изменил:
---
Скачали: 0 (Раздающих: 100%)
Причина:
---
Здоровье: 100%
Сидеров: 25 Личеров: 8
Скорость раздачи: 0 байт/сек Скорость скачивания: 0 байт/сек
Последний сидер: 5 месяцев 10 дней 5 часов 16 минут 51 секунду назад Последний личер: 5 месяцев 10 дней 5 часов 16 минут 51 секунду назад
Для скачивания торрента необходимо зарегистрироваться или войти на трекер.
Показать сообщения за:  Поле сортировки  
Начать новую тему Ответить на тему  [ 1 сообщение ] 


Кто сейчас на конференции

Сейчас этот форум просматривают: нет зарегистрированных пользователей и гости: 1


Вы не можете начинать темы
Вы не можете отвечать на сообщения
Вы не можете редактировать свои сообщения
Вы не можете удалять свои сообщения
Вы не можете добавлять вложения

Найти:
Перейти:  
cron
Создано на основе phpBB® Forum Software © phpBB Group
ppkBB3cker v.2.5 © 2008-2020 @ PPK | Icon Theme by Everaldo.com Design Studio
Русская поддержка phpBB
[ Time : 0.051s | 15 Queries | GZIP : On ]
Ресурс не предоставляет электронные версии произведений, а занимается лишь коллекционированием и каталогизацией ссылок, присылаемых и публикуемых на форуме нашими читателями. Если вы являетесь правообладателем какого-либо представленного материала и не желаете чтобы ссылка на него находилась в нашем каталоге, свяжитесь с нами и мы незамедлительно удалим её. Файлы для обмена на трекере предоставлены пользователями сайта, и администрация не несёт ответственности за их содержание. Просьба не заливать файлы, защищенные авторскими правами, а также файлы нелегального содержания!