Jinta.ru

Полезный софт трекер





Начать новую тему Ответить на тему  [ 1 сообщение ] 
Автор Сообщение
СообщениеДобавлено: 04 май 2020, 08:54 
Не в сети
Релизер
Аватара пользователя
Раздал: 31.54 ГБ
Скачал: 82.88 МБ
Ратио: None.


Зарегистрирован: 22 май 2018, 22:33
Сообщения: 188
Приключения частного детектива / Adventures of a Private Eye


#777

Информация о фильме
Название: Приключения частного детектива
Оригинальное название: Adventures of a Private Eye
Год выхода: 1977
Страна: Великобритания
Студия: Salon Productions
Продолжительность: 01:36:48
Перевод: Aвторский одноголосый
Жанр: Kомедия, эротика, криминал

Режиссер: Стэнли А. Лонг

В ролях: Кристофер Нил, Сьюзи Кендалл, Гарри Х. Корбет, Дайана Дорс, Фред Эмни, Лиз Фрайзер, Айрин Хэндл, Йен Лавендер, Джулиан Орхард, Джон Пертви

О фильме:
Молодой человек, выдавая себя за частного детектива, ищет сексуальных приключений.





Файл
Кодек: AVC
Качество: WEB-DL 1080p | AMZN
Видео: MPEG-4 AVC, 14.5 Mбит/с, 1920x1040, 24.000 кадр/с
Аудио #1: Русский (АС3, 2 ch, 192 Кбит/с, 48.0 KHz) Aвторский (одноголосый, закадровый) Андрей Дольский
Аудио #2: Английский (E-АС3, 2 ch, 224 Кбит/с, 48.0 KHz)
Субтитры: английские
Источник: Adventures.of.a.Private.Eye.1977.1080p.AMZN.WEB-DL.DDP2.0.x264-QOQ
General
Unique ID : 247933338796597447777794833002606217440 (0xBA8639613DA6D178B7D4CAE2B4FDC8E0)
Complete name : Adventures.of.a.Private.Eye.1977.WEB-DL.1080p.mkv
Format : Matroska
Format version : Version 4
File size : 10.1 GiB
Duration : 1 h 36 min
Overall bit rate mode : Variable
Overall bit rate : 14.9 Mb/s
Encoded date : UTC 2020-04-30 07:37:11
Writing application : mkvmerge v7.1.0 ('Good Love') 64bit built on Jul 27 2014 13:06:55
Writing library : libebml v1.3.0 + libmatroska v1.4.1

Video
ID : 1
Format : AVC
Format/Info : Advanced Video Codec
Format profile : High@L4
Format settings : CABAC / 4 Ref Frames
Format settings, CABAC : Yes
Format settings, Reference fra : 4 frames
Codec ID : V_MPEG4/ISO/AVC
Duration : 1 h 36 min
Bit rate mode : Variable
Bit rate : 14.5 Mb/s
Maximum bit rate : 15.0 Mb/s
Width : 1 920 pixels
Height : 1 040 pixels
Display aspect ratio : 1.85:1
Frame rate mode : Constant
Frame rate : 24.000 FPS
Color space : YUV
Chroma subsampling : 4:2:0
Bit depth : 8 bits
Scan type : Progressive
Bits/(Pixel*Frame) : 0.302
Stream size : 9.78 GiB (97%)
Language : English
Default : Yes
Forced : No
Color range : Limited
Color primaries : BT.709
Transfer characteristics : BT.709
Matrix coefficients : BT.709

Audio #1
ID : 2
Format : AC-3
Format/Info : Audio Coding 3
Commercial name : Dolby Digital
Codec ID : A_AC3
Duration : 1 h 36 min
Bit rate mode : Constant
Bit rate : 192 kb/s
Channel(s) : 2 channels
Channel layout : L R
Sampling rate : 48.0 kHz
Frame rate : 31.250 FPS (1536 SPF)
Compression mode : Lossy
Stream size : 133 MiB (1%)
Title : AVO | А. Дольский
Language : Russian
Service kind : Complete Main
Default : Yes
Forced : No

Audio #2
ID : 3
Format : E-AC-3
Format/Info : Enhanced AC-3
Commercial name : Dolby Digital Plus
Codec ID : A_EAC3
Duration : 1 h 36 min
Bit rate mode : Constant
Bit rate : 224 kb/s
Channel(s) : 2 channels
Channel layout : L R
Sampling rate : 48.0 kHz
Frame rate : 31.250 FPS (1536 SPF)
Compression mode : Lossy
Stream size : 155 MiB (2%)
Language : English
Service kind : Complete Main
Default : No
Forced : No

Text
ID : 4
Format : UTF-8
Codec ID : S_TEXT/UTF8
Codec ID/Info : UTF-8 Plain Text
Duration : 1 h 35 min
Bit rate : 71 b/s
Count of elements : 1302
Stream size : 50.1 KiB (0%)
Language : English
Default : No
Forced : No


Вернуться к началу
 Профиль Отправить личное сообщение  
Ответить с цитатой  
  • Торрент
Автор: Saturn Хэш: ---
Добавлен: 04 май 2020, 08:54 Приватный: Нет (DHT включён)
Статус: Проверен
Размер: 10.07 ГБ (10 810 220 888 байт)
Изменил:
---
Скачали: 1367 (Раздающих: 3%)
Причина:
---
Здоровье: 100%
Сидеров: 44 Личеров: 6
Скорость раздачи: 0 байт/сек Скорость скачивания: 0 байт/сек
Последний сидер: 1 месяц 2 дня 5 часов 13 минут 38 секунд назад Последний личер: 1 месяц 2 дня 5 часов 13 минут 38 секунд назад
Для скачивания торрента необходимо зарегистрироваться или войти на трекер.
Показать сообщения за:  Поле сортировки  
Начать новую тему Ответить на тему  [ 1 сообщение ] 


Кто сейчас на конференции

Сейчас этот форум просматривают: нет зарегистрированных пользователей и гости: 1


Вы не можете начинать темы
Вы не можете отвечать на сообщения
Вы не можете редактировать свои сообщения
Вы не можете удалять свои сообщения
Вы не можете добавлять вложения

Найти:
Перейти:  
cron
Создано на основе phpBB® Forum Software © phpBB Group
ppkBB3cker v.2.5 © 2008-2019 @ PPK | Icon Theme by Everaldo.com Design Studio
Русская поддержка phpBB
[ Time : 0.048s | 16 Queries | GZIP : On ]
Ресурс не предоставляет электронные версии произведений, а занимается лишь коллекционированием и каталогизацией ссылок, присылаемых и публикуемых на форуме нашими читателями. Если вы являетесь правообладателем какого-либо представленного материала и не желаете чтобы ссылка на него находилась в нашем каталоге, свяжитесь с нами и мы незамедлительно удалим её. Файлы для обмена на трекере предоставлены пользователями сайта, и администрация не несёт ответственности за их содержание. Просьба не заливать файлы, защищенные авторскими правами, а также файлы нелегального содержания!