Jinta.ru

Полезный софт трекер





Начать новую тему Ответить на тему  [ 1 сообщение ] 
Автор Сообщение
СообщениеДобавлено: 11 июн 2019, 23:03 
Не в сети
Администратор
Аватара пользователя
Раздал: 1.21 ТБ
Скачал: 514.14 ГБ
Ратио: 1029.051


Зарегистрирован: 30 июл 2016, 22:43
Сообщения: 2246
Слишком много плоти / Too Much Flesh


#777

Информация о фильме
Название: Слишком много плоти
Оригинальное название: Too Much Flesh
Год выхода: 2000
Страна: Франция
Студия: Barnothing, Canal+ [fr], TF1 International, Toloda
Продолжительность: 01:43:56
Перевод: Профессиональный (многоголосый)
Жанр: драма, эротика

Режиссер: Паскаль Арнольд, Жан-Марк Барр

В ролях:
Розанна Аркетт, Элоди Буше, Жан-Марк Барр, Иэн Бреннан, Иэн Вогт, Стефни Уир, Рич Коменич, Дуэйн Барр, Хаттон Кобб, Майк Скьюиз

О фильме:
В маленьком городке в штате Иллинойс нравы очень строги. Но лицемерие и пуританство местечка будет подвергнуто тяжелым испытаниям, когда у 35-летнего женатого Лайла начнется бурный роман с приезжей француженкой Жюльетт. Их отношения столь свободны и шокирующи, что это не может не привести к конфликту...





В Иллинойсе - время жатвы. Стебли, вымахавшие выше головы, - сухие и колкие: рыжий бурелом под синим знойным небом. Между рыжим и синим единственная посторонняя краска - Лайл (Барр), красивый 35-летний брюнет. Голый, он довольно жмурится под синим небом и трется бедрами о рыжие стебли. Столь буквальное единение крестьянина с природой - вынужденная мера: женщины поселка, включая его набожную жену (Аркетт), не подпускают Лайла к себе. С давних пор известно, что в его члене слишком много плоти и всяк его принимающий испытает только адскую боль. Известно женщинам, известно мужчинам, известно самому Лайлу. Известно всем, кроме случайно залетевшей в деревню молодой парижанки (Буше).
(с) Алексей Васильев.


Файл
Кодек: XviD
Качество: DVDRip Исходник
Видео: 704x368 (1.91:1), 25 fps, XviD build 50 ~1814 kbps avg, 0.28 bit/pixel
Аудио: 48 kHz, AC3 Dolby Digital, 2/0 (L,R) ch, ~192 kbps
Субтитры: нет

Общее
Полное имя : D:Too Much Flesh (2000) DVDRip.avi
Формат : AVI
Формат/Информация : Audio Video Interleave
Размер файла : 1,46 Гбайт
Продолжительность : 1 ч. 43 м.
Общий поток : 2017 Кбит/сек
Название фильма : Too Much Flesh (2000) DVDRip
Режиссёр : Maksmet
Программа кодирования : VirtualDubModRus 1.5.10.2 (build 2542/release)
Формат оригинала/Имя : Movie
Примечание : 10.06.2019

Видео
Идентификатор : 0
Формат : MPEG-4 Visual
Профиль формата : Advanced Simple@L5
Параметр BVOP формата : 1
Параметр QPel формата : Нет
Параметр GMC формата : Без точки перехода
Параметр матрицы формата : Выборочная
Идентификатор кодека : XVID
Идентификатор кодека/Подсказка : XviD
Продолжительность : 1 ч. 43 м.
Битрейт : 1815 Кбит/сек
Ширина : 704 пикселя
Высота : 368 пикселей
Соотношение сторон : 1,913
Частота кадров : 25,000 кадров/сек
Цветовое пространство : YUV
Субдискретизация насыщенности : 4:2:0
Битовая глубина : 8 бит
Тип развёртки : Прогрессивная
Метод сжатия : С потерями
Бит/(Пиксели*Кадры) : 0.280
Размер потока : 1,32 Гбайт (90%)
Библиотека кодирования : XviD 1.2.1 (UTC 2008-12-04)

Аудио
Идентификатор : 1
Формат : AC-3
Формат/Информация : Audio Coding 3
Параметр Endianness формата : Big
Идентификатор кодека : 2000
Продолжительность : 1 ч. 43 м.
Вид битрейта : Постоянный
Битрейт : 192 Кбит/сек
Каналы : 2 канала
Расположение каналов : Front: L R
Частота : 48,0 КГц
Частота кадров : 31,250 кадров/сек (1536 SPF)
Битовая глубина : 16 бит
Метод сжатия : С потерями
Размер потока : 143 Мбайт (10%)
Выравнивание : Разделение по промежуткам
Продолжительность промежутка : 40 мс. (1,00 видеокадр)
Время предзагрузки промежутка : 500 мс.
ServiceKind/String : Complete Main









Вернуться к началу
 Профиль Отправить личное сообщение  
Ответить с цитатой  
  • Торрент
Автор: Jinta Хэш: ---
Добавлен: 11 июн 2019, 23:03 Приватный: Нет (DHT включён)
Статус: Проверен
Размер: 1.46 ГБ (1 572 145 152 байт)
Изменил:
---
Скачали: 1722 (Раздающих: 10%)
Причина:
---
Здоровье: 100%
Сидеров: 164 Личеров: 15
Скорость раздачи: 0 байт/сек Скорость скачивания: 0 байт/сек
Последний сидер: 1 день 4 часа 36 минут 40 секунд назад Последний личер: 1 день 4 часа 36 минут 40 секунд назад
Для скачивания торрента необходимо зарегистрироваться или войти на трекер.
Показать сообщения за:  Поле сортировки  
Начать новую тему Ответить на тему  [ 1 сообщение ] 


Кто сейчас на конференции

Сейчас этот форум просматривают: нет зарегистрированных пользователей и гости: 1


Вы не можете начинать темы
Вы не можете отвечать на сообщения
Вы не можете редактировать свои сообщения
Вы не можете удалять свои сообщения
Вы не можете добавлять вложения

Найти:
Перейти:  
cron
Создано на основе phpBB® Forum Software © phpBB Group
ppkBB3cker v.2.5 © 2008-2019 @ PPK | Icon Theme by Everaldo.com Design Studio
Русская поддержка phpBB
Ресурс не предоставляет электронные версии произведений, а занимается лишь коллекционированием и каталогизацией ссылок, присылаемых и публикуемых на форуме нашими читателями. Если вы являетесь правообладателем какого-либо представленного материала и не желаете чтобы ссылка на него находилась в нашем каталоге, свяжитесь с нами и мы незамедлительно удалим её. Файлы для обмена на трекере предоставлены пользователями сайта, и администрация не несёт ответственности за их содержание. Просьба не заливать файлы, защищенные авторскими правами, а также файлы нелегального содержания!