Jinta.ru

Полезный софт трекер





Начать новую тему Ответить на тему  [ 1 сообщение ] 
Автор Сообщение
СообщениеДобавлено: 13 янв 2019, 23:50 
Не в сети
Администратор
Аватара пользователя
Раздал: 8.33 ТБ
Скачал: 949.53 ГБ
Ратио: 1159.449


Зарегистрирован: 07 окт 2016, 01:02
Сообщения: 5814
Гомо папа / Homo Father


#777

Год выпуска: 2005
Страна: Польша
Продолжительность: 00:55:47
Перевод: Одноголосый закадровый
Оригинальная аудиодорожка: польский
Субтитры: нет
Жанр: драма, мелодрама, гей-тема

Режиссёр: Пётр Матвейчик / Piotr Matwiejczyk

В ролях:
Давид Антковяк (Роберт), Бодо Кокс (Габриэль), Дарья Иван, Гория Корнилюк, Магдалена Вожняк, Амелия Матвейчик, Роберт Гонера, Тереза Савицка

Описание:
Габриэль и Роберт любят друг друга и несколько лет живут вместе в маленькой квартире в многоэтажке. Роберт скрывает свою ориентацию от родственников и коллег по работе. Это ему даётся нелегко: он - парень симпатичный, поэтому к нему пристают женщины и даже шеф. Габриэль - такое себе чудо в перьях, "домохозяйка", но с претензиями - истеричный, не работает, следит за фигурой, ходит в солярий и переваливает все проблемы на Роберта. Он готов всему миру поведать о своём счастье. Оказывается, у Габриэля есть маленькая дочка. Её мать хочет уехать надолго на заработки в Германию и ей не на кого оставить ребёнка, поэтому она бесцеремонно оставляет дочку на Габриэля и Роберта. А ребёнок - это не игрушка, которую можно убрать в шкаф, когда наигрался. Короче, атмосфера накаляется .
Один из первых польских фильмов на гей-тему.



Сэмпл: https://www.sendspace.com/file/96rkj8

Качество видео: HDRip
Формат видео: AVI
Видео: XviD; 704 x 352 (2:1); 25 кадров/сек; 1225 Кбит/сек
Аудио 1: MP3; 44,1 КГц; 128 Кбит/сек; 2 канала; VO (Русский)
Аудио 2: MP3; 44,1 КГц; 160 Кбит/сек; 2 канала; Оригинал (Польский)
Общее
Формат : AVI
Формат/Информация : Audio Video Interleave
Размер файла : 609 Мбайт
Продолжительность : 55 м. 47 с.
Общий поток : 1527 Кбит/сек
Программа кодирования : VirtualDubModRus 1.5.10.2 (build 2542/release)
Библиотека кодирования : VirtualDubMod build 2542/release
Видео
Идентификатор : 0
Формат : MPEG-4 Visual
Профиль формата : Advanced Simple@L5
Настройки формата : BVOP2
Параметр BVOP формата : 2
Параметр QPel формата : Нет
Параметр GMC формата : Без точки перехода
Параметр матрицы формата : Default (H.263)
Идентификатор кодека : XVID
Идентификатор кодека/Подсказка : XviD
Продолжительность : 55 м. 47 с.
Битрейт : 1225 Кбит/сек
Ширина : 704 пикселя
Высота : 352 пикселя
Соотношение сторон : 2,000
Частота кадров : 25,000 кадров/сек
Цветовое пространство : YUV
Субдискретизация насыщенности : 4:2:0
Битовая глубина : 8 бит
Тип развёртки : Прогрессивная
Метод сжатия : С потерями
Бит/(Пиксели*Кадры) : 0.198
Размер потока : 489 Мбайт (80%)
Библиотека кодирования : XviD 67
Аудио #1
Идентификатор : 1
Формат : MPEG Audio
Версия формата : Version 1
Профиль формата : Layer 3
Настройки формата : Joint stereo / MS Stereo
Идентификатор кодека : 55
Идентификатор кодека/Подсказка : MP3
Продолжительность : 55 м. 47 с.
Вид битрейта : Постоянный
Битрейт : 128 Кбит/сек
Каналы : 2 канала
Частота : 44,1 КГц
Метод сжатия : С потерями
Размер потока : 51,0 Мбайт (8%)
Выравнивание : Соединение по промежуткам
Продолжительность промежутка : 40 мс. (1,00 видеокадр)
Время предзагрузки промежутка : 522 мс.
Аудио #2
Идентификатор : 2
Формат : MPEG Audio
Версия формата : Version 1
Профиль формата : Layer 3
Настройки формата : Joint stereo / MS Stereo
Идентификатор кодека : 55
Идентификатор кодека/Подсказка : MP3
Продолжительность : 55 м. 47 с.
Вид битрейта : Постоянный
Битрейт : 160 Кбит/сек
Каналы : 2 канала
Частота : 44,1 КГц
Метод сжатия : С потерями
Размер потока : 63,8 Мбайт (10%)
Выравнивание : Разделение по промежуткам
Продолжительность промежутка : 40 мс. (1,00 видеокадр)
Время предзагрузки промежутка : 500 мс.


Вернуться к началу
 Профиль Отправить личное сообщение  
Ответить с цитатой  
  • Торрент
Автор: Titan Хэш: ---
Добавлен: 13 янв 2019, 23:50 Приватный: Нет (DHT включён)
Статус: Проверен
Размер: 609.41 МБ (639 012 864 байт)
Изменил:
---
Скачали: 0 (Раздающих: 100%)
Причина:
---
Здоровье: 100%
Сидеров: 8 Личеров: 2
Скорость раздачи: 0 байт/сек Скорость скачивания: 0 байт/сек
Последний сидер: 1 год 8 месяцев 14 дней 4 часа 37 минут 41 секунду назад Последний личер: 1 год 8 месяцев 14 дней 4 часа 37 минут 41 секунду назад
Для скачивания торрента необходимо зарегистрироваться или войти на трекер.
Показать сообщения за:  Поле сортировки  
Начать новую тему Ответить на тему  [ 1 сообщение ] 


Кто сейчас на конференции

Сейчас этот форум просматривают: нет зарегистрированных пользователей и гости: 1


Вы не можете начинать темы
Вы не можете отвечать на сообщения
Вы не можете редактировать свои сообщения
Вы не можете удалять свои сообщения
Вы не можете добавлять вложения

Найти:
Перейти:  
cron
Создано на основе phpBB® Forum Software © phpBB Group
ppkBB3cker v.2.5 © 2008-2019 @ PPK | Icon Theme by Everaldo.com Design Studio
Русская поддержка phpBB
[ Time : 0.049s | 14 Queries | GZIP : On ]
Ресурс не предоставляет электронные версии произведений, а занимается лишь коллекционированием и каталогизацией ссылок, присылаемых и публикуемых на форуме нашими читателями. Если вы являетесь правообладателем какого-либо представленного материала и не желаете чтобы ссылка на него находилась в нашем каталоге, свяжитесь с нами и мы незамедлительно удалим её. Файлы для обмена на трекере предоставлены пользователями сайта, и администрация не несёт ответственности за их содержание. Просьба не заливать файлы, защищенные авторскими правами, а также файлы нелегального содержания!